(Folk/Pop) [MC] [16/44,1] Юра Саркисян (кларнет) - 2002, FLAC (tracks)

 Статистика раздачи 
Размер: 294.88 МБ   |  Зарегистрирован: 20 фев 2015, 07:05   |   .torrent скачан: 0 раз
Сидеров: 0  [ 0 байт/сек ]     Личеров: 0  [ 0 байт/сек ]  
  
Аватара пользователя
Главный редактор
Главный редактор
 
Раздал: 90.01 ТБ
Скачал: 3.78 ТБ
Ратио: 24.248
Сообщения: 274106
Стаж: 9 лет 1 месяц 17 дней
Откуда: Санкт-Петербург

Юра Саркисян

Жанр: Folk/Pop
Носитель: MC
Год выпуска: 2002
Лейбл: A&A Studio
Страна-производитель: Russia
Аудио кодек: FLAC
Тип рипа: tracks
Формат записи: 24/176,4
Формат раздачи: 16/44,1
Продолжительность: 00:42:25
Тэги: прописаны
Источник оцифровки: автором раздачи
Код класса состояния винила: Ex
Устройство воспроизведения: SCD RS-TR 575 “Technics”
Головка звукоснимателя: YBBS09-C6L843
Предварительный усилитель: AMX - 100 (LTO®)
АЦП: Juli@
Программа-оцифровщик: AdobeAudition CS6 5.0.2
Обработка: удаление артефактов
Official DR value: DR13

01. Праздничный танец
02. Танец Юрика
03. Восточный таней
04. Далеко ты от меня
05. Долго ждал
06. Незнакомая любовь
07. Прошедшие дни
08. Танец Тиграна
09. Танец Юрика
10. Куш Каро

Код: Выделить всё
foobar2000 1.1.3 / Dynamic Range Meter 1.1.1
log date: 2015-02-20 12:52:37
--------------------------------------------------------------------------------
Analyzed: Юра Саркисян / 2002
--------------------------------------------------------------------------------
DR         Peak         RMS     Duration Track
--------------------------------------------------------------------------------
DR13      -1.10 dB   -15.22 dB      4:01 ?-Праздничный танец
DR13      -1.10 dB   -15.10 dB      3:08 ?-Танец Юрика
DR14      -1.10 dB   -15.64 dB      3:37 ?-Восточный таней
DR12      -1.10 dB   -15.50 dB      6:24 ?-Далеко ты от меня
DR12      -1.10 dB   -15.29 dB      4:02 ?-Долго ждал
DR13      -0.60 dB   -15.31 dB      2:50 ?-Незнакомая любовь
DR14      -1.10 dB   -16.46 dB      3:03 ?-Прошедшие дни
DR13      -1.10 dB   -16.67 dB      4:44 ?-Танец Тиграна
DR13      -0.48 dB   -15.26 dB      5:01 ?-Танец Юрика
DR10      -1.10 dB   -14.29 dB      5:35 ?-Куш Каро
--------------------------------------------------------------------------------
Number of tracks:  10
Official DR value: DR13
Samplerate:        44100 Hz
Channels:          2
Bits per sample:   16
Bitrate:           900 kbps
Codec:             FLAC
================================================================================

Раздача восстановлена 23.03.2017.


Не забывайте говорить Спасибо. Не уходите с раздачи!   
Торрент: Зарегистрирован [20 фев 2015, 07:05]
Статус:
Проверен
 
.torrent скачан: 0 раз
Хэш: 0e062095baf0b4cf5d2aa649bdeec85270696be3
Размер: 294.88 МБ (309 208 598 байт)
   Стать Автором раздачи
   
Цитата

Вернуться в Фольклор, народная и этническая музыка (оцифровки)

Кто сейчас на конференции

Сейчас эту тему просматривают: нет зарегистрированных пользователей и гости: 1