(Rock, Country Rock) [LP][24/96] Linda Ronstadt ‎- Heart Like A Wheel (Capitol Records/ST-11358 US) - 1974, FLAC (tracks+.cue)

 Статистика раздачи 
Размер: 699.1 МБ   |  Зарегистрирован: 02 окт 2014, 12:01   |   .torrent скачан: 0 раз
Сидеров: 0  [ 0 байт/сек ]     Личеров: 0  [ 0 байт/сек ]  
  
Аватара пользователя
Главный редактор
Главный редактор
Я на сайте
 
Раздал: 90.01 ТБ
Скачал: 3.78 ТБ
Ратио: 24.248
Сообщения: 273922
Стаж: 9 лет 1 месяц 15 дней
Откуда: Санкт-Петербург

Linda Ronstadt ‎- Heart Like A Wheel (Capitol Records/ST-11358, US Pressing) - 1974
Жанр: Rock, Country Rock
Носитель: LP
Год выпуска: 1974
Лейбл: Capitol Records - ST-11358
Страна-производитель: US
Аудио кодек: FLAC
Тип рипа: tracks+.cue
Формат записи: не указано
Формат раздачи: 24/96
Продолжительность: 31:53
Треклист:
A1 You're No Good 3:40
A2 It Doesn't Matter Anymore 3:26
A3 Faithless Love 3:13
A4 Dark End Of The Street 3:55
A5 Heart Like A Wheel 3:08
B1 When Will I Be Loved 2:52
B2 Willing 3:01
B3 I Can't Help It (If I'm Still In Love With You) 2:44
B4 Keep Me From Blowing Away 3:10
B5 You Can Close Your Eyes 3:10
Источник оцифровки: LP Rip & Full Scan LP Cover: Fran Solo (AvaxHome)
Код класса состояния винила: Неизвестно
Устройство воспроизведения: Marantz 6170
Головка звукоснимателя: SHURE M97xE With Jico SAS Stylus
Предварительный усилитель: Sansui 9090DB
АЦП: E-MU 0404
Программа-оцифровщик: XLD
Обработка: не указано
Recorded At – The Sound Factory
Mixed At – The Sound Factory
Recorded At – Clover Studios
Recorded At – Record Plant, N.Y.C.
Recorded At – Track Recorders
Recorded At – Trident Studios
Recorded At – Air Studios
Mastered At – A&M Mastering Studios
Credits
Acoustic Guitar – Andrew Gold (tracks: B2, B3), Bob Warford (tracks: A2, A4, B3)
Arranged By [Strings], Conductor – Gregory Rose (tracks: A1, A2, B5)
Backing Vocals – Andrew Gold (tracks: B1, B2), Kenny Edwards (tracks: B1, B2), Linda Ronstadt (tracks: A2, A4, B1, B4)
Bass – Kenny Edwards (tracks: A1, A2, B1 to B3)
Design – Rod Dyer
Drums – Andrew Gold (tracks: A1 to A3, B1)
Electric Piano – Andrew Gold (tracks: A1, A3)
Fiddle – David Lindley (tracks: A5, B3)
Harmonica – Jimmy Fadden* (tracks: A2, B2)
Mastered By – Bernie Grundman
Percussion – Andrew Gold (tracks: A1 to A3)
Photography – Len Correa
Photography [Innersleeve] – Eve Babitz
Piano – Andrew Gold (tracks: A4, A5, B3, B5)
Producer – Peter Asher
Recorded By – Dave Hassinger, Val Garay
Recorded By [Additional] – Dennis Ferante*, George Massenburg, John Haeny, Peter Kelsey, Peter Swettenham
Steel Guitar – Sneaky Pete Kleinow (tracks: A2, B2, B3)
Tambourine – Andrew Gold (tracks: A4, B1)
Notes
Recorded June-September, 1974
Track B2 as printed on the label, sleeve shows it as, "Willin".
Track B3 as printed on the label, sleeve shows it as, "I Can't Help It If I'm Still In Love With You".
Following the same formula as her early records, Heart Like a Wheel doesn't appear to be a great breakthrough on the surface. However, Ronstadt comes into her own on this mix of oldies and contemporary classics. Backed by a fleet of Los Angeles musicians, Ronstadt sings with vigor and passion, helping bring the music alive. But what really makes Heart Like a Wheel a breakthrough is the inventive arrangements that producer Peter Asher, Ronstadt, and the studio musicians have developed. Finding the right note for each song -- whether it's the soulful reworking of "When Will I Be Loved," the hit "You're No Good," or the laid-back folk-rock of "Willing" -- the musicians help turn Heart Like a Wheel into a veritable catalog of Californian soft rock, and it stands as a landmark of '70s mainstream pop/rock.
Review by Stephen Thomas Erlewine, allmusic.com
----------------------------------------------------------------------------------------------
Analyzed folder: /Linda Ronstadt ‎- Heart Like A Wheel (LP)
----------------------------------------------------------------------------------------------
DR Peak RMS Filename
----------------------------------------------------------------------------------------------
DR12 -0.12 dB -15.29 dB 01 Linda Ronstadt - LADO 1- You're No Good.wav
DR12 -0.77 dB -14.93 dB 02 Linda Ronstadt - It Doesn't Matter Anymore.wav
DR12 -0.65 dB -15.97 dB 03 Linda Ronstadt - Faithless Love.wav
DR11 -1.74 dB -14.96 dB 04 Linda Ronstadt - Dark End Of The Street.wav
DR11 -3.43 dB -18.88 dB 05 Linda Ronstadt - Heart Like A Wheel.wav
DR11 -1.18 dB -14.05 dB 06 Linda Ronstadt - LADO 2- When Will I Be Loved.wav
DR13 -0.57 dB -15.43 dB 07 Linda Ronstadt - Willing.wav
DR12 -1.32 dB -15.27 dB 08 Linda Ronstadt - I Can't Help It (If I'm Still In Love With You).wav
DR11 -2.30 dB -16.24 dB 09 Linda Ronstadt - Keep Me From Blowing Away.wav
DR12 -0.40 dB -15.24 dB 10 Linda Ronstadt - You Can Close Your Eyes.wav
----------------------------------------------------------------------------------------------
Number of files: 10
Official DR value: DR12
====================================================
Не забывайте говорить Спасибо. Не уходите с раздачи!   
Торрент: Зарегистрирован [02 окт 2014, 12:01]
Статус:
Проверен
 
.torrent скачан: 0 раз
Хэш: 98008a4f47cc190cad697b21113d1beee9be618a
Размер: 699.1 МБ (733 057 889 байт)
   Стать Автором раздачи
   
Цитата

Вернуться в Фольклор, народная и этническая музыка (оцифровки)

Кто сейчас на конференции

Сейчас эту тему просматривают: нет зарегистрированных пользователей и гости: 1