(New Age, Acoustic, Neofolk) [24/48] Michael Hedges - Aerial Boundaries - 1984, FLAC (image+.cue)

 Статистика раздачи 
Размер: 416.33 МБ   |  Зарегистрирован: 01 янв 2019, 06:04   |   .torrent скачан: 0 раз
Сидеров: 0  [ 0 байт/сек ]     Личеров: 0  [ 0 байт/сек ]  
  
Аватара пользователя
Главный редактор
Главный редактор
 
Раздал: 90.01 ТБ
Скачал: 3.78 ТБ
Ратио: 24.248
Сообщения: 274856
Стаж: 9 лет 1 месяц 20 дней
Откуда: Санкт-Петербург

С НОВЫМ ГОДОМ!

Michael Hedges - Aerial Boundaries (1984)

Жанр: New Age, Acoustic, Neofolk
Носитель: MC
Год выпуска: 1984
Лейбл: Windham Hill Records - WT-91032
Страна-производитель: US
Аудио кодек: FLAC
Тип рипа: image+.cue
Формат записи: 24/96
Формат раздачи: 24/48
Продолжительность: 00:38:10
Тэги в .cue: прописаны
Источник оцифровки: автором раздачи
Код класса состояния магнитной ленты: VG+
Устройство воспроизведения: AKAI GX 95MK2
Магнитная головка: LC-OFC SGX (x2)
Предварительный усилитель: встроенный
АЦП: Juli@
Программа-оцифровщик: Adobe Audition CS6 5.0.2.
Обработка: удаление артефактов, частичная реставрация

A1 Aerial Boundaries
A2 Bensusan
A3 Rickover's Dream
A4 Ragamuffin
A5 After The Gold Rush
B1 Hot Type
B2 Spare Change
B3 Menage A Trois
B4 The Magic Farmer
К сожалению, "родная" обложка кассеты не сохранилась.
Код: Выделить всё
foobar2000 1.1.3 / Dynamic Range Meter 1.1.1
log date: 2018-12-27 11:06:18
--------------------------------------------------------------------------------
Analyzed: Michael Hedges / Aerial Boundaries
--------------------------------------------------------------------------------
DR         Peak         RMS     Duration Track
--------------------------------------------------------------------------------
DR17      -0.10 dB   -22.67 dB      4:46 ?-A1 Aerial Boundaries
DR16      -5.81 dB   -26.17 dB      2:32 ?-A2 Bensusan
DR18      -0.49 dB   -23.53 dB      4:53 ?-A3 Rickover's Dream
DR20      -0.10 dB   -24.40 dB      3:17 ?-A4 Ragamuffin
DR13      -6.42 dB   -25.63 dB      4:10 ?-A5 After The Gold Rush
DR17      -1.49 dB   -21.13 dB      1:38 ?-B1 Hot Type
DR13      -4.56 dB   -23.08 dB      5:49 ?-B2 Spare Change
DR16      -0.69 dB   -22.43 dB      7:11 ?-B3 Menage A Trois
DR20      -0.10 dB   -25.53 dB      3:55 ?-B4 The Magic Farmer
--------------------------------------------------------------------------------
Number of tracks:  9
Official DR value: DR17
Samplerate:        48000 Hz
Channels:          2
Bits per sample:   24
Bitrate:           1531 kbps
Codec:             FLAC
================================================================================
Код: Выделить всё
REM GENRE "New Age, Acoustic, Neofolk"
REM DATE "1984"
REM COMMENT "Cassette, Album, Windham Hill Records - WT-91032, US"
PERFORMER "Michael Hedges"
TITLE "Aerial Boundaries"
FILE "01. Side 1.flac" WAVE
  TRACK 01 AUDIO
    TITLE "A1 Aerial Boundaries"
    INDEX 01 00:00:00
  TRACK 02 AUDIO
    TITLE "A2 Bensusan"
    INDEX 01 04:45:41
  TRACK 03 AUDIO
    TITLE "A3 Rickover's Dream"
    INDEX 01 07:17:52
  TRACK 04 AUDIO
    TITLE "A4 Ragamuffin"
    INDEX 01 12:10:70
  TRACK 05 AUDIO
    TITLE "A5 After The Gold Rush"
    INDEX 01 15:27:48
FILE "02. Side 2.flac" WAVE
  TRACK 06 AUDIO
    TITLE "B1 Hot Type"
    INDEX 01 00:00:00
  TRACK 07 AUDIO
    TITLE "B2 Spare Change"
    INDEX 01 01:38:09
  TRACK 08 AUDIO
    TITLE "B3 Menage A Trois"
    INDEX 01 07:27:17
  TRACK 09 AUDIO
    TITLE "B4 The Magic Farmer"
    INDEX 01 14:37:63


С НОВЫМ ГОДОМ!
Не забывайте говорить Спасибо. Не уходите с раздачи!   
Торрент: Зарегистрирован [01 янв 2019, 06:04]
Статус:
Проверен
 
.torrent скачан: 0 раз
Хэш: 8278d2b5ca7dd28967cc79d63cee2234d44e0948
Размер: 416.33 МБ (436 557 489 байт)
   Стать Автором раздачи
   
Цитата
  • Похожие торренты
    Ответы
    Просмотры
    Последнее сообщение

Вернуться в Фольклор, народная и этническая музыка (оцифровки)

Кто сейчас на конференции

Сейчас эту тему просматривают: нет зарегистрированных пользователей и гости: 1