(Salsa,Panamanean Salsa, Salsa Nuevayorkina,) [LP] [24/48] Ruben Blades y Seis del Solar - Escenas - 1985, FLAC (tracks)

 Статистика раздачи 
Размер: 463.21 МБ   |  Зарегистрирован: 03 янв 2018, 09:13   |   .torrent скачан: 0 раз
Сидеров: 0  [ 0 байт/сек ]     Личеров: 0  [ 0 байт/сек ]  
  
Аватара пользователя
Главный редактор
Главный редактор
 
Раздал: 90.01 ТБ
Скачал: 3.78 ТБ
Ратио: 24.248
Сообщения: 274187
Стаж: 9 лет 1 месяц 18 дней
Откуда: Санкт-Петербург

Ruben Blades y Seis del Solar - Escenas
Жанр: Salsa,Panamanean Salsa, Salsa Nuevayorkina,
Носитель: LP
Год выпуска: 1985
Лейбл: ELEKTRA EKT29
Страна-производитель: UK
Аудио кодек: FLAC
Тип рипа: tracks
Формат записи: 24/48
Формат раздачи: 24/48
Продолжительность: 00:39:56
Треклист:
A1 Cuentas del alma
A2 Tierra dura
A3 La cancion del final del mundo
A4 sorpresas
B1 Caína
B2 Silencios
B3 Muevete
копировать и размещать в папке > >
REM GENRE Salsa
REM DATE 1985
PERFORMER "Ruben Blades"
TITLE "Ruben Blades y Seis del Solar - Escenas"
FILE "Lado A-Cuentas del alma-tierra dura-la cancion del final del mundo-sorpresas.flac" WAVE
TRACK 01 AUDIO
TITLE "A1 Cuentas del alma"
INDEX 01 00:00:00
TRACK 02 AUDIO
TITLE "A2 Tierra dura"
PERFORMER "Ruben Blades"
INDEX 01 05:06:00
TRACK 03 AUDIO
TITLE "A3 La cancion del final del mundo"
PERFORMER "Ruben Blades"
INDEX 01 10:04:00
TRACK 04 AUDIO
TITLE "A4 sorpresas"
PERFORMER "Ruben Blades"
INDEX 01 14:32:00
FILE "Lado B-Caína-silencios-muevete.flac" WAVE
TRACK 05 AUDIO
TITLE "B1 Caína"
INDEX 01 00:00:00
TRACK 02 AUDIO
TITLE "B2 Silencios"
PERFORMER "Ruben Blades"
INDEX 01 04:57:00
TRACK 03 AUDIO
TITLE "B3 Muevete"
PERFORMER "Ruben Blades"
INDEX 01 10:10:00
Источник оцифровки: автором раздачи
Код класса состояния MC: Ex
Устройство воспроизведения: QuickplayLP
Головка звукоснимателя: QuickplayLP
Предварительный усилитель: QuickplayLP
АЦП: Lexicon Alpha
Программа-оцифровщик: Audacity [Ubuntu]
Обработка: Без обработки





----------------------------------------------------------------------------------------------
Analyzed: Escenas / Artist: Ruben Blades y Seis del Solar
----------------------------------------------------------------------------------------------
DR Peak RMS Duration Title [codec]
----------------------------------------------------------------------------------------------
DR14 -0.00 dB -17.16 dB 21:55 Lado A-Cuentas del alma-tierra dura-la cancion del final del mundo-sorpresas.flac
DR14 -0.00 dB -16.90 dB 18:00 Lado B-Caína-silencios-muevete.flac
----------------------------------------------------------------------------------------------
Number of files: 2
Official DR value: DR14
Sampling rate: 48000 Hz
Average bitrate: 1569kbs
Bits per sample: 32 bit
Dr14 T.meter 1.0.16
==============================================================================================
Не забывайте говорить Спасибо. Не уходите с раздачи!   
Торрент: Зарегистрирован [03 янв 2018, 09:13]
Статус:
Проверен
 
.torrent скачан: 0 раз
Хэш: 9efc2d31528434b84228ad5fcbe7dfaa82da1d31
Размер: 463.21 МБ (485 705 782 байт)
   Стать Автором раздачи
   
Цитата

Вернуться в Фольклор, народная и этническая музыка (оцифровки)

Кто сейчас на конференции

Сейчас эту тему просматривают: нет зарегистрированных пользователей и гости: 1