(Rock) [LP] [24/96] Joan Baez - From Every Stage - 1976, FLAC (tracks+.cue)

 Статистика раздачи 
Размер: 1.61 ГБ   |  Зарегистрирован: 20 дек 2015, 14:05   |   .torrent скачан: 0 раз
Сидеров: 0  [ 0 байт/сек ]     Личеров: 0  [ 0 байт/сек ]  
  
Аватара пользователя
Главный редактор
Главный редактор
 
Раздал: 90.01 ТБ
Скачал: 3.78 ТБ
Ратио: 24.248
Сообщения: 273621
Стаж: 9 лет 1 месяц 12 дней
Откуда: Санкт-Петербург

Joan Baez - From Every Stage
Жанр: Rock
Носитель: LP
Год выпуска: 1976
Лейбл: A&M Records – SP3704
Страна-производитель: U.S
Аудио кодек: FLAC
Тип рипа: tracks+.cue
Формат записи: 32/192
Формат раздачи: 24/96
Продолжительность: 81 min
Треклист:
Disc I:
01. Turn Me Around
02. Blessed Are
03. Suzanne
04. Love Song To A Stranger
05. I Shall Be Released
06. Blowin' In The Wind
07. Stewball
08. Natalia
09. The Ballad Of Sacco & Vanzetti
10. Joe Hill
Disc II:
01. Love Is Just A Four-Letter Word
02. Forever Young
03. Diamonds And Rust
04. Boulder To Birmingham
05. Swing Low, Sweet Chariot
06. Oh, Happy Day
07. Please Come To Boston
08. Lily, Rosemary And The Jack Of Hearts
09. The Night They Drove Old Dixie Down
10. Amazing Grace
Источник оцифровки: автором раздачи
Код класса состояния винила: NM
Устройство воспроизведения: Электроника ЭП 017С
Головка звукоснимателя: Audio-Technica AT95
Предварительный усилитель: Бриг-001
АЦП: VIA HD audio device
Программа-оцифровщик: Izotope RX 4 Advanced
Обработка: Izotope RX 4 Advanced
foobar2000 1.1.10 / Dynamic Range Meter 1.1.1
log date: 2015-12-20 16:24:21
--------------------------------------------------------------------------------
Analyzed: Joan Baez / From Every Stage Disc #1
--------------------------------------------------------------------------------
DR Peak RMS Duration Track
--------------------------------------------------------------------------------
DR14 -2.65 dB -19.66 dB 2:50 ?-Turn Me Around
DR13 -4.64 dB -21.31 dB 2:52 ?-Blessed Are
DR13 -2.74 dB -19.74 dB 4:21 ?-Suzanne
DR13 -2.99 dB -20.03 dB 4:49 ?-Love Song To A Stranger
DR13 -2.49 dB -19.06 dB 2:20 ?-I Shall Be Released
DR13 -3.68 dB -19.53 dB 2:35 ?-Blowin' In The Wind
DR13 -2.79 dB -19.55 dB 4:34 ?-Stewball
DR12 -4.21 dB -21.34 dB 4:08 ?-Natalia
DR11 -4.16 dB -20.48 dB 4:23 ?-The Ballad Of Sacco & Vanzetti
DR13 -3.05 dB -20.05 dB 3:11 ?-Joe Hill
--------------------------------------------------------------------------------
Number of tracks: 10
Official DR value: DR13
Samplerate: 96000 Hz
Channels: 2
Bits per sample: 24
Bitrate: 2847 kbps
Codec: FLAC
=============================================================================
foobar2000 1.1.10 / Dynamic Range Meter 1.1.1
log date: 2015-12-20 17:51:51
--------------------------------------------------------------------------------
Analyzed: Joan Baez / From Every Stage Disc #2
--------------------------------------------------------------------------------
DR Peak RMS Duration Track
--------------------------------------------------------------------------------
DR13 -2.36 dB -18.49 dB 3:32 ?-Love Is Just A Four-Letter Word
DR12 -1.77 dB -19.59 dB 3:40 ?-Forever Young
DR12 -3.49 dB -19.67 dB 4:19 ?-Diamonds And Rust
DR13 -2.06 dB -18.55 dB 4:02 ?-Boulder To Birmingham
DR10 -5.05 dB -19.99 dB 3:56 ?-Swing Low, Sweet Chariot
DR12 -2.39 dB -16.74 dB 3:38 ?-Oh, Happy Day
DR13 -1.63 dB -18.02 dB 4:16 ?-Please Come To Boston
DR13 -1.70 dB -17.09 dB 8:49 ?-Lily, Rosemary And The Jack Of Hearts
DR12 -3.00 dB -17.77 dB 3:54 ?-The Night They Drove Old Dixie Down
DR11 -3.55 dB -19.88 dB 4:27 ?-Amazing Grace
--------------------------------------------------------------------------------
Number of tracks: 10
Official DR value: DR12
Samplerate: 96000 Hz
Channels: 2
Bits per sample: 24
Bitrate: 2793 kbps
Codec: FLAC
================================================================================
A1 (Ain't Gonna Let Nobody) Turn Me Around 2:50
A2 Blessed Are 2:52
A3 Suzanne 4:22
A4 Love Song To A Stranger (Part II) 4:22
A5 I Shall Be Released 2:12
B1 Blowin' In The Wind 2:36
B2 Stewball 4:33
B3 Natalia
Written-By – G.T. Moore, R. Apps*, Shusha
3:54
B4 The Ballad Of Sacco & Vanzetti 4:23
B5 Joe Hill 3:02
C1 Love Is Just A Four-Letter Word 3:30
C2 Forever Young 3:40
C3 Diamonds & Rust 4:19
C4 Boulder To Birmingham 4:00
C5 Swing Low, Sweet Chariot 3:56
C6 Oh, Happy Day 3:36
D1 Please Come To Boston 4:16
D2 Lily, Rosemary And The Jack Of Hearts 8:49
D3 The Night They Drove Old Dixie Down 3:55
D4 Amazing Grace 4:35
Companies, etc.
Produced For – JCB Productions
Phonographic Copyright (p) – A&M Records, Inc.
Published By – Chandos Music
Published By – Project Seven Music
Published By – Dwarf Music
Published By – M. Witmark & Sons
Published By – Ryerson Music
Published By – Gil Music Corp.
Published By – Sunbury Music, Inc.
Published By – MCA Music Inc.
Published By – Ram's Horn Music
Published By – Cherry Lane Music Co.
Published By – Wait And See Music
Published By – Kama Rippa Music
Published By – Edwin R. Hawkins Music
Published By – Antique Music
Published By – Leeds Music Corp.
Published By – Canaan Music, Inc.
Mastered At – A&M Studios
Credits
Bass – James Jamerson
Design – Bob Cato
Drums – Jim Gordon
Executive-Producer – Bernard Gelb
Guitar – Dan Ferguson, Larry Carlton
Keyboards – David Briggs (2)
Mastered By – Bernie Grundman
Photography By – Doug Metzler, Irene Harris
Photography By [Inside] – Camera 5, Ken Regan
Producer – David Kershenbaum
Notes
Larry Carlton appears courtesy of ABC Records/Blue Thumb Records.
Cat # SP-3704 appears on the label.
Cat # SP3704 appears on the spine and front cover, bottom-right.
Barcode and Other Identifiers
Matrix / Runout (Side 1 Label): SP-3713
Matrix / Runout (Side 2 Label): SP-3714
Matrix / Runout (Side 3 Label): SP-3715
Matrix / Runout (Side 4 Label): SP-3716
Matrix / Runout (Side 1 Etched): A&M SP3713-M3-EX Δ20301 CRP-PITMAN
Matrix / Runout (Side 2 Etched): A&M SP 3714-T2 8 T1
Matrix / Runout (Side 3 Etched): A&M SP3715-T1 17 T1
Matrix / Runout (Side 4 Etched): A&M SP3716-M3-EX Δ20302-X CRP-TERRE HAUTE
Matrix / Runout (Side 1 & 4 Stamped): MR [Circled]
Rights Society: ASCAP
Rights Society: BMI
Из коллекций моего друга Сосо Ч.
(а дружили мы с детского сада....)
Царство ему небесная!
Не забывайте говорить Спасибо. Не уходите с раздачи!   
Торрент: Зарегистрирован [20 дек 2015, 14:05]
Статус:
Проверен
 
.torrent скачан: 0 раз
Хэш: a3cb7dc7a32f92b422fc271858e01059522eb808
Размер: 1.61 ГБ (1 732 042 694 байт)
   Стать Автором раздачи
   
Цитата
  • Похожие торренты
    Ответы
    Просмотры
    Последнее сообщение

Вернуться в Фольклор, народная и этническая музыка (оцифровки)

Кто сейчас на конференции

Сейчас эту тему просматривают: нет зарегистрированных пользователей и гости: 1