(Country-Folk, singer/songwriter) [LP] [24/96] Joan Baez - 5 LP's - 1965 - 1977, FLAC (tracks+.cue)

 Статистика раздачи 
Размер: 4.98 ГБ   |  Зарегистрирован: 01 фев 2016, 18:23   |   .torrent скачан: 0 раз
Сидеров: 0  [ 0 байт/сек ]     Личеров: 0  [ 0 байт/сек ]  
  
Аватара пользователя
Главный редактор
Главный редактор
 
Раздал: 90.01 ТБ
Скачал: 3.78 ТБ
Ратио: 24.248
Сообщения: 274856
Стаж: 9 лет 1 месяц 20 дней
Откуда: Санкт-Петербург

Joan Baez - 5 LP's
Жанр: Country-Folk, singer/songwriter
Носитель: LP
Год выпуска: 1965, 1968, 1973, 1975, 1977
Лейбл: A&M Records, Vanguard
Страна-производитель: DE, US
Аудио кодек: FLAC
Тип рипа: tracks+.cue
Формат записи: 24/96
Формат раздачи: 24/96
Продолжительность: 3:57:22
Источник оцифровки: LP Rip & Full Scan LP Cover: Fran Solo
Устройство воспроизведения: Technics SL-1200MK2 Quartz
Головка звукоснимателя: SHURE M97xE With Jico SAS Stylus
Предварительный усилитель: Marantz 2252 (Sansui 9090DB - 1965, 1968, 1973)
#77Лейбл: Vanguard/VSD-79200
Страна-производитель: US
Продолжительность: 42:49
Треклист:
A1. Farewell, Angelina (Bob Dylan)
A2. Daddy, You Been on My Mind (Bob Dylan)
A3. It's All Over Now, Baby Blue (Bob Dylan)
A4. Wild Mountain Thyme (Traditional, arranged Francis McPeake Family)
A5. Ranger's Command (Woody Guthrie)
A6. Colours (Donovan Leitch)
B1. A Satisfied Mind (Joe 'Red' Hayes, Jack Rhodes)
B2. The River in the Pines (Traditional)
B3. Pauvre Ruteboeuf ("Poor Ruteboeuf") (Leo Ferre, Ruteboeuf)
B4. Sagt Mir wo die Blumen sind" ("Where Have All the Flowers Gone?") (Pete Seeger)
B5. A Hard Rain's A-Gonna Fall (Bob Dylan)
foobar2000 1.3.5 / Dynamic Range Meter 1.1.1
log date: 2017-07-10 09:35:03
--------------------------------------------------------------------------------
Analyzed: Joan Baez / Farewell, Angelina (LP)
--------------------------------------------------------------------------------
DR Peak RMS Duration Track
--------------------------------------------------------------------------------
DR13 -2.12 dB -17.58 dB 3:19 01-LADO 1- Farewell, Angelina
DR12 -0.84 dB -15.75 dB 2:19 02-Daddy, You Been On My Mind
DR12 -0.32 dB -15.45 dB 3:26 03-It's All Over Now, Baby Blue
DR11 -0.03 dB -16.61 dB 4:38 04-The Wild Mountain Thyme
DR12 -1.37 dB -17.34 dB 3:18 05-Ranger's Command
DR13 -1.32 dB -17.60 dB 3:11 06-Colours
DR12 -0.57 dB -15.09 dB 3:28 07-LADO 2- Satisfied Mind
DR11 -2.11 dB -16.62 dB 3:38 08-The River In The Pines
DR13 -1.05 dB -20.24 dB 3:40 09-Pauvre Ruteboeuf
DR12 -1.83 dB -16.91 dB 4:05 10-Sagt Mir Wo Die Blumen Sind
DR12 -0.02 dB -14.80 dB 7:48 11-A Hard Rain's A-Gonna Fall
--------------------------------------------------------------------------------
Number of tracks: 11
Official DR value: DR12
Samplerate: 96000 Hz
Channels: 2
Bits per sample: 24
Bitrate: 3016 kbps
Codec: FLAC
================================================================================
Design – Jules Halfant
Double Bass [String Bass] – Richard Romoff (tracks: A4, B4), Russ Savakus
Electric Guitar – Bruce Langhorne (tracks: A2, A3, A6, B1, B5)
Guitar – Joan Baez
Liner Notes – Joan Baez
Mandolin – Ralph Rinzler (tracks: B1)
Photography [Back Cover] – Mary Stafford
Photography [Cover] – Richard Avedon
#7#77#77
#77Лейбл: Vanguard/VSD 79306
Страна-производитель: US
Продолжительность: 1:08:55
Треклист:
A1 Love Minus Zero / No Limit
A2 North Country Blues
A3 You Ain't Goin' Nowhere
A4 Drifter's Escape
A5 I Pity The Poor Immigrant
B1 Tears Of Rage
B2 Sad-Eyed Lady Of The Lowlands
33:16
C1 Love Is Just A Four-Letter Word
C2 I Dreamed I Saw St. Augustine
C3 The Walls Of Redwing
C4 Dear Landlord
C5 One Too Many Mornings
D1 I Shall Be Released
D2 Boots Of Spanish Leather
D3 Walkin' Down The Line
D4 Restless Farewell
35:39



foobar2000 1.3.5 / Dynamic Range Meter 1.1.1
log date: 2017-07-10 09:47:48
--------------------------------------------------------------------------------
Analyzed: Joan Baez / Any Day Now (LP-1)
--------------------------------------------------------------------------------
DR Peak RMS Duration Track
--------------------------------------------------------------------------------
DR12 -1.35 dB -16.07 dB 2:45 01-LADO 1- Love Minus Zero - No Limit
DR13 -0.95 dB -16.74 dB 5:00 02-North Country Blues
DR13 -2.43 dB -16.75 dB 2:59 03-You Ain't Goin' Nowhere
DR13 -0.20 dB -15.51 dB 2:56 04-Drifter's Escape
DR12 -3.19 dB -17.34 dB 3:52 05-I Pity The Poor Immigrant
DR13 -2.72 dB -19.56 dB 4:22 06-LADO 2- Tears Of Rage
DR13 0.00 dB -14.69 dB 11:22 07-Sad-Eyed Lady Of The Lowlands
--------------------------------------------------------------------------------
Number of tracks: 7
Official DR value: DR13
Samplerate: 96000 Hz
Channels: 2
Bits per sample: 24
Bitrate: 3088 kbps
Codec: FLAC
================================================================================
++++++++++++++++++++++++++++++++++++++++++++++++++++++++++++++++++++++++++++++++
foobar2000 1.3.5 / Dynamic Range Meter 1.1.1
log date: 2017-07-10 09:52:01
--------------------------------------------------------------------------------
Analyzed: Joan Baez / Any Day Now (LP-2)
--------------------------------------------------------------------------------
DR Peak RMS Duration Track
--------------------------------------------------------------------------------
DR12 -0.09 dB -14.19 dB 4:29 01-LADO 3- Love Is Just A Four-Letter Word
DR13 -0.17 dB -15.44 dB 3:16 02-I Dreamed I Saw St Augustine
DR13 -0.06 dB -14.69 dB 3:50 03-The Walls Of Redwing
DR12 -0.08 dB -14.08 dB 3:01 04-Dear Landlord
DR13 -0.06 dB -14.84 dB 3:18 05-One Too Many Mornings
DR12 -0.68 dB -15.55 dB 3:56 06-LADO 4- I Shall Be Released
DR12 -0.87 dB -14.62 dB 4:32 07-Boots Of Spanish Leather
DR12 -0.28 dB -14.54 dB 3:24 08-Walkin' Down The Line
DR12 -1.03 dB -17.55 dB 5:53 09-Restless Farewell
--------------------------------------------------------------------------------
Number of tracks: 9
Official DR value: DR12
Samplerate: 96000 Hz
Channels: 2
Bits per sample: 24
Bitrate: 2957 kbps
Codec: FLAC
================================================================================
Musician:
Bill Purcell
Buddy Spicher
David Briggs
Fred Carter
Grady Martin
Hal Rugg
Hargus Robbins
Harold Bradley
Jerry Kennedy
Jerry Reed
John Gimble
Ken Buttrey
Norbert Putnam
Pete Drake
Pete Wade
Junior Huskey
Steve Stills
Tommy Jackson
Producer – Maynard Solomon
Written-By – Bob Dylan
#7#77#7#77#7#77
#77Лейбл: Vanguard/SHZE 384
Страна-производитель: DE
Продолжительность: 36:16
Треклист:
A1 The Night They Drove Old Dixie Down
A2 Dangling Conversation
A3 Help Me Make It Through The Night
A4 Blessed Are
A5 Eleanor Rigby
A6 Let It Be
B1 There But For Fortune
B2 The Brand New Tennessee Waltz
B3 I Pity The Poor Immigrant
B4 Love Is Just A Four Letter Word
B5 Heaven Help Us All
----------------------------------------------------------------------------------------------
Analyzed folder: /Joan Baez ‎- Hits-Greatest & Others (LP)
----------------------------------------------------------------------------------------------
DR Peak RMS Filename
----------------------------------------------------------------------------------------------
DR12 -0.08 dB -14.69 dB 01 Joan Baez - LADO 1- The Night They Drove Old Dixie Down.wav
DR12 -1.23 dB -15.76 dB 02 Joan Baez - Dangling Conversation.wav
DR11 -2.10 dB -16.05 dB 03 Joan Baez - Help Me Make It Through The Night.wav
DR12 -2.82 dB -17.50 dB 04 Joan Baez - Blessed Are.wav
DR11 -1.85 dB -16.73 dB 05 Joan Baez - Eleanor Rigby.wav
DR11 -1.18 dB -16.50 dB 06 Joan Baez - Let It Be.wav
DR13 -4.02 dB -21.03 dB 07 Joan Baez - LADO 2- There But For Fortune.wav
DR12 -0.79 dB -16.22 dB 08 Joan Baez - The Brand New Tennessee Waltz.wav
DR12 -2.77 dB -17.78 dB 09 Joan Baez - I Pity The Poor Immigrant.wav
DR13 -0.99 dB -16.74 dB 10 Joan Baez - Love Is Just A Four Letter Word.wav
DR12 -0.73 dB -16.39 dB 11 Joan Baez - Heaven Help Us All.wav
----------------------------------------------------------------------------------------------
Number of files: 11
Official DR value: DR12
==============================================================================================
Design – Jules Halfant
Director Of Photography – William Claxton
#7#77#77
#77Лейбл: A&M Records/QU-54527
Страна-производитель: US
Продолжительность: 42:23
Код класса состояния винила: Ex-
Треклист:
A1 Diamonds & Rust
A2 Fountain Of Sorrow
A3 Never Dreamed You'd Leave In Summer
A4 Children And All That Jazz
A5 Simple Twist Of Fate
B1 Blue Sky
B2 Hello In There
B3 Jesse
B4 Winds Of The Old Days
B5 Dida
B6 I Dream Of Jeannie / Dannie Boy
----------------------------------------------------------------------------------------------
Analyzed folder: /Joan Baez - Diamonds & Rust (LP)
----------------------------------------------------------------------------------------------
DR Peak RMS Filename
----------------------------------------------------------------------------------------------
DR12 -1.97 dB -17.23 dB 01 Joan Baez - LADO 1- Diamonds & Rust.wav
DR13 -1.08 dB -16.06 dB 02 Joan Baez - Fountain Of Sorrow.wav
DR12 -3.32 dB -19.16 dB 03 Joan Baez - Never Dreamed You'd Leave In Summer.wav
DR13 -2.12 dB -17.45 dB 04 Joan Baez - Children And All That Jazz.wav
DR13 -2.61 dB -18.33 dB 05 Joan Baez - Simple Twist Of Fate.wav
DR13 -0.44 dB -16.36 dB 06 Joan Baez - LADO 2- Blue Sky.wav
DR12 -2.91 dB -17.00 dB 07 Joan Baez - Hello In There.wav
DR12 -3.13 dB -18.51 dB 08 Joan Baez - Jesse.wav
DR13 -0.13 dB -15.79 dB 09 Joan Baez - Winds Of The Old Days.wav
DR12 -3.77 dB -17.71 dB 10 Joan Baez - Dida.wav
DR11 -9.27 dB -26.91 dB 11 Joan Baez - I Dream Of Jeannie - Dannie Boy.wav
----------------------------------------------------------------------------------------------
Number of files: 11
Official DR value: DR12
==============================================================================================
Acoustic Guitar – Joan Baez (tracks: A1, A5, B2 to B5)
Arranged By – Joan Baez (tracks: A3 to A5), Larry Carlton (tracks: A3 to A5)
Bass – Reinie Press (tracks: A2, A3, A5, B2, B4), Wilton Felder (tracks: A1, A4, B1, B3)
Cello – Jesse Erlich* (tracks: A3-A5)
Electric Piano – Joe Sample (tracks: A1-A5, B4, B5)
Engineer [Assistant] – Ellis Sorkin
Executive Producer – Bernard Gelb
Guitar – Dean Parks (tracks: A1, A3 to B1, B4), Larry Carlton (tracks: A1 to B1, B3, B4)
Leader [Strings] – Sid Sharp* (tracks: A3-A5)
Mastered By – Mike Reese
Mastered By [Quad Mastering] – Darrell Johnson
Mixed By – Rick Ruggieri
Photography – Irene Harris
Piano – Larry Knechtel (tracks: A2, A3, A5, B4, B6)
Producer – David Kershenbaum, Joan Baez
Recorded By – Rick Ruggieri
Steel Guitar [Pedal] – Red Rhodes (tracks: A2, B1, B2, B4)
Viola – Isabell Daskoff* (tracks: A3 to A5)
Violin – Carl La Magna* (tracks: A3 to A5), James Getzoff (tracks: A3 to A5), Raymond Kelly* (tracks: A3 to A5), Robert Konrad (tracks: A3 to A5), Robert Ostrowsky (tracks: A3 to A5), Ronald Folsom (tracks: A3 to A5), Sidney Sharp (tracks: A3 to A5), Tibor Zelig (tracks: A3 to A5), William Hymanson (tracks: A3 to A5), William Kurasch (tracks: A3 to A5)
Vocals – Joan Baez
Written-By – Joan Baez (tracks: A1, A4, B4, B5)
With the Vietnam War winding down, Joan Baez, who had devoted one side of her last album to her trip to Hanoi, delivered the kind of commercial album A&M Records must have wanted when it signed her three years earlier. But she did it on her own terms, putting together a session band of contemporary jazz veterans like Larry Carlton, Wilton Felder, and Joe Sample, and mixing a wise selection from the work of current singer-songwriters like Jackson Browne and John Prine with pop covers of Stevie Wonder and the Allman Brothers Band, and an unusually high complement of her own writing. A&M, no doubt recalling the success of her cover of the Band's "The Night They Drove Old Dixie Down," released her version of the Allmans' "Blue Sky" as a single, and it got halfway up the charts. But the real hit was the title track, a self-penned masterpiece on the singer's favorite subject, her relationship with Bob Dylan. Outdoing the current crop of confessional singer/songwriters at soul baring, Baez sang to Dylan, reminiscing about her '60s love affair with him intensely, affectionately, and unsentimentally. It was her finest moment as a songwriter and one of her finest performances, period, and when A&M finally released it on 45, it made the Top 40, propelling the album to gold status. But those who bought the disc for "Diamonds & Rust" also got to hear "Winds of the Old Days," in which Baez forgave Dylan for abandoning the protest movement, as well as the jazzy "Children and All That Jazz," a delightful song about motherhood, and the wordless vocals of "Dida," a duet with Joni Mitchell accompanied by Mitchell's backup band, Tom Scott and the L.A. Express. The cover songs were typically accomplished, making this the strongest album of Baez's post-folk career.
Review by William Ruhlmann, allmusic.com
The Quad CD-4 Release was mastered by Darrell Johnson at JVC Cutting Center (see matrix etching).
Barcode and Other Identifiers
Matrix / Runout (Side One): QU 5454791 -REPL Δ 20169 (2) DWJ
Matrix / Runout: QU 5454792 -REPL Δ 20169-X (2) DWJ
#7#77#77
#77Лейбл: A&M Records/SP-4668
Страна-производитель: US
Продолжительность: 46:58
Код класса состояния винила: EX
Треклист:
A1 Diamonds And Rust
A2 Forever Young
A3 Prison Trilogy (Billy Rose)
A4 Simple Twist Of Fate
A5 Never Dreamed You'ld Leave In Summer
A6 Love Song To A Stranger
B1 Please Come To Boston
B2 Children And All That Jazz
B3 Sweeter For Me
B4 Imagine
B5 Gracias A La Vida (Here's To Life)
B6 The Night They Drove Old Dixie Down
foobar2000 1.3.5 / Dynamic Range Meter 1.1.1
log date: 2016-06-09 16:58:31
--------------------------------------------------------------------------------
Analyzed: Joan Baez / The Best Of Joan C. Baez (LP)
--------------------------------------------------------------------------------
DR Peak RMS Duration Track
--------------------------------------------------------------------------------
DR12 -4.87 dB -20.09 dB 4:41 01-LADO 1- Diamonds And Rust
DR14 -0.12 dB -18.86 dB 3:40 02-Forever Young
DR12 -2.63 dB -17.63 dB 4:23 03-Prison Trilogy (Billy Rose)
DR13 -1.02 dB -16.37 dB 4:44 04-Simple Twist Of Fate
DR11 -3.33 dB -18.83 dB 2:46 05-Never Dreamed You'ld Leave In Summer
DR13 -2.99 dB -19.44 dB 3:54 06-Love Song To A Stranger
DR13 -1.51 dB -17.89 dB 4:17 07-LADO 2- Please Come To Boston
DR14 -1.48 dB -17.53 dB 3:09 08-Children And All That Jazz
DR14 -2.03 dB -19.57 dB 4:30 09-Sweeter For Me
DR13 -1.24 dB -16.61 dB 3:27 10-Imagine
DR13 -1.90 dB -16.62 dB 3:35 11-Gracias A La Vida (Here's To Life)
DR13 -2.41 dB -18.35 dB 3:51 12-The Night They Drove Old Dixie Down
--------------------------------------------------------------------------------
Number of tracks: 12
Official DR value: DR13
Samplerate: 96000 Hz
Channels: 2
Bits per sample: 24
Bitrate: 2777 kbps
Codec: FLAC
================================================================================
A&M's 1977 collection The Best of Joan Baez doesn't chronicle her most influential work, but that doesn't mean it's not without merit.Far from it, actually. This is a concise recapping of her poppier recordings for A&M, which include such classic Baez moments as her original "Diamonds and Rust" and a definitive reading of Robbie Robertson's "The Night They Drove Old Dixie Down." The rest of the album splits the difference between covers (including Stevie Wonder's lovely "I Never Dreamed You'd Leave in Summer" and Dylan's "Simple Twist of Fate") and originals, providing an entertaining, enlightening encapsulation of her '70s recordings.
allmusic.com
Notes
Label reads Joan C. Baez, as does the sleeve and spine.
#7#77#77
Не забывайте говорить Спасибо. Не уходите с раздачи!   
Торрент: Зарегистрирован [01 фев 2016, 18:23]
Статус:
Проверен
 
.torrent скачан: 0 раз
Хэш: f5b8b223eeab34a2a8b198bd66aa0e534de2afeb
Размер: 4.98 ГБ (5 342 551 553 байт)
   Стать Автором раздачи
   
Цитата

Вернуться в Фольклор, народная и этническая музыка (оцифровки)

Кто сейчас на конференции

Сейчас эту тему просматривают: нет зарегистрированных пользователей и гости: 1