(Folk, World, & Country) [LP] [24/96] Urubamba - Urubamba - 1974, FLAC (tracks+.cue)

 Статистика раздачи 
Размер: 620.49 МБ   |  Зарегистрирован: 05 апр 2017, 06:29   |   .torrent скачан: 0 раз
Сидеров: 0  [ 0 байт/сек ]     Личеров: 0  [ 0 байт/сек ]  
  
Аватара пользователя
Главный редактор
Главный редактор
Я на сайте
 
Раздал: 90.01 ТБ
Скачал: 3.78 ТБ
Ратио: 24.248
Сообщения: 274792
Стаж: 9 лет 1 месяц 19 дней
Откуда: Санкт-Петербург

Urubamba - Urubamba
Жанр: Folk, World, & Country
Носитель: LP
Год выпуска: 1974
Лейбл: Columbia/KC 32896 (First Press)
Страна-производитель: US
Аудио кодек: FLAC
Тип рипа: tracks+.cue
Формат записи: 24/96
Формат раздачи: 24/96
Продолжительность: 28:49
Треклист:
A1 Urubamba
A2 El Corazon Del Inca(The Heart Of Inca)
A3 Canten Cantores (Singers)
A4 Fugitivo En El Altiplano (Fugitive Of The Andean High Plains)
A5 El Eco (The Echo)
A6 Caballo De Madera (Wooden Horse)
B1 Kacharpari
B2 Campanas De Santa Cruz (Death Of Santa Cruz)
B3 Buena Nueva (Good News Pan Pipes)
B4 Para Pelusa (For Pelusa)
B5 Una (Fingernail)
Источник оцифровки: LP Rip & Full Scan LP Cover: Fran Solo
Код класса состояния винила: Неизвестно
Устройство воспроизведения: Marantz 6170
Головка звукоснимателя: SHURE M97xE
Предварительный усилитель: Sansui 9090DB
АЦП: E-MU 0404
----------------------------------------------------------------------------------------------
Analyzed folder: /Urubamba - Urubamba (LP)
----------------------------------------------------------------------------------------------
DR Peak RMS Filename
----------------------------------------------------------------------------------------------
DR12 -0.75 dB -15.68 dB 01 Urubamba - LADO 1- Urubamba.wav
DR11 -3.56 dB -18.90 dB 02 Urubamba - El Corazon Del Inca (The Heart Of Inca).wav
DR12 -0.17 dB -14.85 dB 03 Urubamba - Canten Cantores (Sing Singers).wav
DR16 -5.71 dB -26.46 dB 04 Urubamba - Fugitivo En El Altiplano (Fugitive Of The High Plains).wav
DR12 -0.87 dB -15.76 dB 05 Urubamba - El Eco (The Echo).wav
DR11 -1.05 dB -16.00 dB 06 Urubamba - Caballo De Madera (Wooden Horse).wav
DR11 -0.80 dB -15.31 dB 07 Urubamba - LADO 2- Kacharpari.wav
DR12 -0.13 dB -16.35 dB 08 Urubamba - Campanas De Santa Cruz (Bells Of Santa Cruz).wav
DR15 -0.74 dB -16.60 dB 09 Urubamba - Buena Nueva (Good News).wav
DR14 -0.53 dB -18.66 dB 10 Urubamba - Para Pelusa (For Pelusa).wav
DR11 -0.96 dB -15.43 dB 11 Urubamba - Una (Fingernail).wav
----------------------------------------------------------------------------------------------
Number of files: 11
Official DR value: DR12
==============================================================================================
Composed By – J. Milchberg
Design [Album] – Karen Lee Grant
Engineer – Phil Ramone
Photography By [Back Cover] – Don Hunstein
Photography By [Front Cover] – Janet Vincent
Producer – Paul Simon
Urubamba was a music group consisting of musicians from Argentina, PerU and Uruguay, founded in 1956 by Jorge Milchberg. Urubamba, at the time known as Los Incas, introduced Paul Simon to Andean music in the mid-1960s, and then toured and recorded with Simon ("El C?ndor Pasa"). Urubamba featured the Argentines Jorge Milchberg on charango, U?a Ramos and Jorge Cumbo on the quena flute, and the Uruguayan Emilio Arteaga playing guitar and bombo. Juan Dalera replaced U?a Ramos for their second world tour with Simon.
Milchberg's style stayed close to the folklore of the altiplano (highlands) of Peru, Argentina, Bolivia, Ecuador and Chile, but two albums, Un Pedazo del Infinito and Urubamba are remarkable due to their esoteric, almost meditative moods. Milchberg's later recordings, on the French Buda label, feature him as a soloist on charango ("Charango") or in the grouping that reverted to the original name of Los Incas ("Los Incas en Concert" and "El Ultimo") with his son, Olivier Milchberg, accompanied by cello, guitar, pan pipes (zampo?as), and drum (bombo). On "El Ultimo"—recorded forty-six years after the group's founding—the personnel consisted of Jorge and Olivier Milchberg with Lupe Vega (voice), Juan Dalera (flute), Moises Arnaiz (guitar), Jorge Trasante (percussion), and Rob Yaffe (cello).
progarchives.com
тропа инков до Мачу-Пикчу вдоль реки Урубамба,зажатая между горными цепями Кордильера Вилькабамба, где то там, далеко-далеко в горах Перу, где фиолетовое небо и звезды ночью можно достать рукой.
(с) Comus
Recorded at A&R Studios, New York.
#7#77#77
Не забывайте говорить Спасибо. Не уходите с раздачи!   
Торрент: Зарегистрирован [05 апр 2017, 06:29]
Статус:
Проверен
 
.torrent скачан: 0 раз
Хэш: 2f1f2b7a8d73d7ce2298d646a3723daf427bfed9
Размер: 620.49 МБ (650 633 966 байт)
   Стать Автором раздачи
   
Цитата

Вернуться в Фольклор, народная и этническая музыка (оцифровки)

Кто сейчас на конференции

Сейчас эту тему просматривают: нет зарегистрированных пользователей и гости: 1