(Folk) Inti Illimani - En Directo - 1980, [LP] [16/44] FLAC (image+.cue), lossless

 Статистика раздачи 
Размер: 246.87 МБ   |  Зарегистрирован: 10 дек 2011, 16:16   |   .torrent скачан: 0 раз
Сидеров: 0  [ 0 байт/сек ]     Личеров: 0  [ 0 байт/сек ]  
  
Аватара пользователя
Главный редактор
Главный редактор
 
Раздал: 90.01 ТБ
Скачал: 3.78 ТБ
Ратио: 24.248
Сообщения: 274043
Стаж: 9 лет 1 месяц 16 дней
Откуда: Санкт-Петербург

Inti Illimani
En Directo

Жанр: Folk
Страна-производитель диска: Peru
Год издания диска: 1980
Издатель (лейбл): EMI
Номер по каталогу: 54 1638131
Страна: Chili
Аудиокодек: FLAC (*.flac)
Тип рипа: image+.cue
Битрейт аудио: lossless
Продолжительность: 39:40
Источник (релизер): Fran Solo
Наличие сканов в содержимом раздачи: да
Turntable: JVC - JL A40
Cartridge: GOLDRING
1st. edition software: SONY SOUNDFORGE 9.0, WAVELAB 6.0
2nd. mastered and audio correction: Fran Solo
Software: Macromedia SoundEdit, XLD Lossless.
Scan LP cover (1:1): Enrico

01. LADO A: El aparecido (3:51)
02. Ramis (2:18)
03. Mis llamitas (2:50)
04. Senhora chichera (3:49)
05. Arriba quemando el sol (4:26)
06. Tio caiman (3:44)
07. LADO B: Alturas (3:14)
08. Simon Bolivar (2:50)
09. Longuita (1:59)
10. Ya parte el galgo terrible (2:39)
11. Samba lando (4:23)
12. El pueblo unido jamas sera vencido (3:37)
Код: Выделить всё
REM DATE 1980
REM COMMENT "Enrico - Fran Solo"
PERFORMER "Inti-Illimani"
TITLE "En directo (LP)"
REM DISCID 8E09460C
FILE "En Directo.flac" WAVE
  TRACK 01 AUDIO
    TITLE "LADO A: El aparecido"
    INDEX 01 00:00:00
  TRACK 02 AUDIO
    TITLE "Ramis"
    INDEX 01 03:51:35
  TRACK 03 AUDIO
    TITLE "Mis llamitas"
    INDEX 01 06:09:19
  TRACK 04 AUDIO
    TITLE "Senhora chichera"
    INDEX 01 08:58:64
  TRACK 05 AUDIO
    TITLE "Arriba quemando el sol"
    INDEX 01 12:47:57
  TRACK 06 AUDIO
    TITLE "Tio caiman"
    INDEX 01 17:14:03
  TRACK 07 AUDIO
    TITLE "LADO B: Alturas"
    INDEX 01 20:58:05
  TRACK 08 AUDIO
    TITLE "Simon Bolivar"
    INDEX 01 24:12:28
  TRACK 09 AUDIO
    TITLE "Longuita"
    INDEX 01 27:01:73
  TRACK 10 AUDIO
    TITLE "Ya parte el galgo terrible"
    INDEX 01 29:01:31
  TRACK 11 AUDIO
    TITLE "Samba lando"
    INDEX 01 31:40:00
  TRACK 12 AUDIO
    TITLE "El pueblo unido jamas sera vencido"
    INDEX 01 36:02:55
Код: Выделить всё
-----------------------
DON'T MODIFY THIS FILE
-----------------------
PERFORMER: auCDtect Task Manager, ver. 1.5.1RC4 build 1.5.1.5
Copyright (c) 2008-2010 y-soft. All rights reserved
[url=http://y-soft.org]http://y-soft.org[/url]
ANALYZER: auCDtect: CD records authenticity detector, version 0.8.2
Copyright (c) 2004 Oleg Berngardt. All rights reserved.
Copyright (c) 2004 Alexander Djourik. All rights reserved.
FILE: En Directo.flac
  Size: 243631383 Hash: 50865E08CE3487C2B69E0079720E7616 Accuracy: -m0
  Conclusion: CDDA 100%
  Signature: E4091E1F91614647133516B7632E4401AFAB4693
"Inti-Illimani - En directo", one of the many recordings of live Inti. I note that it is a very good time and good recording the songs, his first season includes Andean folklore. Recorded entirely in Italy.
I can safely say that the Inti sound as good in studio and live. This LP is unprecedented in digital format until today.
Fran Solo
Spanish.
"Inti-Illimani - En directo", una de las innumerables grabaciones de los Inti en vivo. Destaco que es una muy buena fecha de grabación y muy buenas las canciones incluidas, comprende su primera época de folclor andino. Grabado íntegramente en Italia.
Puedo decir con seguridad que los Inti suenan tan bien en estudio como en vivo. Este LP es inédito en formato digital, hasta hoy.
Fran Solo
Не забывайте говорить Спасибо. Не уходите с раздачи!   
Торрент: Зарегистрирован [10 дек 2011, 16:16]
Статус:
Проверен
 
.torrent скачан: 0 раз
Хэш: 803544cba31c2303245eddd7c9cbf0e77db47a92
Размер: 246.87 МБ (258 862 331 байт)
   Стать Автором раздачи
   
Цитата
  • Похожие торренты
    Ответы
    Просмотры
    Последнее сообщение

Вернуться в Фольклор, народная и этническая музыка (оцифровки)

Кто сейчас на конференции

Сейчас эту тему просматривают: нет зарегистрированных пользователей и гости: 1