(Folk) Inti Illimani - Autores Chilenos - 1971, [LP], [16/44] FLAC (image+.cue), lossless

 Статистика раздачи 
Размер: 106.99 МБ   |  Зарегистрирован: 09 дек 2011, 12:22   |   .torrent скачан: 0 раз
Сидеров: 0  [ 0 байт/сек ]     Личеров: 0  [ 0 байт/сек ]  
  
Аватара пользователя
Главный редактор
Главный редактор
 
Раздал: 90.01 ТБ
Скачал: 3.78 ТБ
Ратио: 24.248
Сообщения: 274898
Стаж: 9 лет 1 месяц 21 день
Откуда: Санкт-Петербург

Inti Illimani
Autores Chilenos

Жанр: Folk
Страна-производитель диска: Chili
Год издания диска: 1971
Издатель (лейбл): DICAP
Номер по каталогу: JJL-13
Страна: Chili
Аудиокодек: FLAC (*.flac)
Тип рипа: image+.cue
Битрейт аудио: lossless
Продолжительность: 34:38
Источник (релизер): Fran Solo
Наличие сканов в содержимом раздачи: да
Turntable: JVC - JL A40
Cartridge: GOLDRING
1st. edition software: SONY SOUNDFORGE 9.0, WAVELAB 6.0
2nd. mastered and audio correction: Fran Solo
Software: Macromedia SoundEdit, XLD Lossless.
Scan LP cover (1:1): Enrico

01. LADO A: Run Run Se Fue P'al Norte (4:28)
02. La Exiliada Del Sur (3:27)
03. Tatati (3:20)
04. Rin Del Angelito (3:23)
05. Ya Parte El Galgo Terrible (3:04)
06. LADO B: Lo Que Mas Quiero (3:23)
07. Volver A Los 17 (4:01)
08. Charagua (3:01)
09. Corazon Maldito (2:58)
10. El Aparecido (3:33)
Код: Выделить всё
REM DATE 1970
REM COMMENT Fran Solo
PERFORMER "Inti-Illimani"
TITLE "Autores Chilenos (LP)"
REM DISCID 98081E0A
FILE "Autores Chilenos.flac" WAVE
  TRACK 01 AUDIO
    TITLE "LADO A: Run Run Se Fue P'al Norte"
    INDEX 01 00:00:00
  TRACK 02 AUDIO
    TITLE "La Exiliada Del Sur"
    INDEX 01 04:28:01
  TRACK 03 AUDIO
    TITLE "Tatati"
    INDEX 01 07:55:02
  TRACK 04 AUDIO
    TITLE "Rin Del Angelito"
    INDEX 01 11:15:00
  TRACK 05 AUDIO
    TITLE "Ya Parte El Galgo Terrible"
    INDEX 01 14:38:04
  TRACK 06 AUDIO
    TITLE "LADO B: Lo Que Mas Quiero"
    INDEX 01 17:42:05
  TRACK 07 AUDIO
    TITLE "Volver A Los 17"
    INDEX 01 21:05:06
  TRACK 08 AUDIO
    TITLE "Charagua"
    INDEX 01 25:06:04
  TRACK 09 AUDIO
    TITLE "Corazon Maldito"
    INDEX 01 28:07:05
  TRACK 10 AUDIO
    TITLE "El Aparecido"
    INDEX 01 31:05:09
Код: Выделить всё
-----------------------
DON'T MODIFY THIS FILE
-----------------------
PERFORMER: auCDtect Task Manager, ver. 1.5.1RC4 build 1.5.1.5
Copyright (c) 2008-2010 y-soft. All rights reserved
[url=http://y-soft.org]http://y-soft.org[/url]
ANALYZER: auCDtect: CD records authenticity detector, version 0.8.2
Copyright (c) 2004 Oleg Berngardt. All rights reserved.
Copyright (c) 2004 Alexander Djourik. All rights reserved.
FILE: Autores Chilenos.flac
  Size: 100668295 Hash: 2EE7D3F2698B0DA8D369E261570AB688 Accuracy: -m0
  Conclusion: CDDA 87%
  Signature: F0F731EC5514650FCA198C4F12B92624AEBB0A23
When I was tender 9 years old, my dad came with 2 singles Inti-Illimani's group. Appeared "Tatatí" and "El aparecido" and the other came the songs "Charagua"and "Lo que más quiero" The taste for good music, I owe to my dad (RIP), a genius in the lyrics but the recommendation comes from so close.
The fact is that I still keep these historic singles from those fateful years in Chile: the 70s.
I think the beauty and imperfections of this LP "Autores Chilenos" was never surpassed by the re-releases of these same issues. Yes, because Inti have a bad or good (depending on the prism that you look at it) habit of "improving" the already done ... For me? a major mistake. Inti throughout its history has changed as musicians who change socks. LP In this meeting they sing better, they are very young (25 years), another spirit. If you ask me that these old people go today, I don't know as I don't care. My interest in them end up on the album "Palimpsesto". The rest is repeat, mix formulas and rhythms, something to keep stretching the elastic to the industry and something I dislike greatly.
Will this jewel of the Inti-Illimani.
Fran Solo
Spanish.
Tenía la tierna edad de 9 años, cuando mi papá llegó con un 2 singles de Inti-Illimani. Aparecían "Tatatí" y "El aparecido" y en el otro venían las canciones "Charagua" y "Lo que más quiero". El gusto por la buena música se lo debo a mi viejo (Q.E.P.D.), un genio en las letras aunque la recomendación venga de tan cerca.
El caso es que aun conservo esos históricos singles provenientes de aquellos aciagos años en Chile: los 70s.
Creo que la belleza y las imperfecciones de este LP "Autores chilenos", nunca fue superada por las re-versiones de estos mismos temas. Sí, porque los Inti tienen la mala o buena (dependiendo del prisma en que se mire) costumbre de "mejorar" lo ya hecho... ¿para mí? un error mayúsculo. Inti a lo largo de su historia han cambiado de músicos como quién se cambia los calcetines. En este LP encuentro que cantan mejor, están muy jóvenes (25 años), otro espíritu. Si me preguntan en que andan estos viejitos hoy, no lo sé y como que no me interesa. Mi interés en ellos termina en el álbum "Palimpsesto". El resto es repetir, mezclar fórmulas y ritmos, cosa de seguir estirando el elástico de la industria y cosa que detesto sobremanera.
Va esta joyita de los Inti.
Fran Solo
Не забывайте говорить Спасибо. Не уходите с раздачи!   
Торрент: Зарегистрирован [09 дек 2011, 12:22]
Статус:
Проверен
 
.torrent скачан: 0 раз
Хэш: 44ec7598aa625e74c463d4e100b9f00c3354af5d
Размер: 106.99 МБ (112 184 501 байт)
   Стать Автором раздачи
   
Цитата

Вернуться в Фольклор, народная и этническая музыка (оцифровки)

Кто сейчас на конференции

Сейчас эту тему просматривают: нет зарегистрированных пользователей и гости: 1