(Folk) Inti Illimani - Canto de Pueblos Andinos Vol 2 - 1978, [LP][16/44] FLAC (image+.cue), lossless

 Статистика раздачи 
Размер: 204.9 МБ   |  Зарегистрирован: 04 дек 2011, 11:00   |   .torrent скачан: 0 раз
Сидеров: 0  [ 0 байт/сек ]     Личеров: 0  [ 0 байт/сек ]  
  
Аватара пользователя
Главный редактор
Главный редактор
 
Раздал: 90.01 ТБ
Скачал: 3.78 ТБ
Ратио: 24.248
Сообщения: 274187
Стаж: 9 лет 1 месяц 18 дней
Откуда: Санкт-Петербург

Inti Illimani
Canto de Pueblos Andinos

Жанр: Folk
Страна-производитель диска: Spain
Год издания диска: 1978
Издатель (лейбл): Movieplay
Номер по каталогу: 6714-5854
Страна: Chili
Аудиокодек: FLAC (*.flac)
Тип рипа: image+.cue
Битрейт аудио: lossless
Продолжительность: 34:00
Источник (релизер): Fran Solo
Наличие сканов в содержимом раздачи: да
Vinyl rip: José Félix
Turntable: Stage Line DJP 104 USB
Cartridge: Shure M97xE (new cartridge)
Mastered and audio correction: Fran Solo
Software: Macromedia SoundEdit, XLD Lossless.

01. LADO A: Carnavalito De La Quebrada De Humahuaca (2:08)
02. Sirvinhaco (2:08)
03. Pascua Linda (3:36)
04. Vasija De Barro (3:28)
05. Estudio Para Charango (1:46)
06. Senhora Chichera (3:49)
07. LADO B: Ojos Azules (2:55)
08. Campanitas (3:05)
09. A Vos Te Ha'i De Pasar (3:38)
10. Solo De Quena (2:37)
11. San Juanito (2:23)
12. Manhana Me Voy P'al Norte (2:27)
Код: Выделить всё
X Lossless Decoder version 20111015 (136.4)
XLD ReplayGain scanning logfile
TOC of the selected file
     Track |   Start  |  Length  | Start sector | End sector
    ---------------------------------------------------------
        1  | 00:00:00 | 02:08:00 |         0    |     9599
        2  | 02:08:00 | 02:08:00 |      9600    |    19199
        3  | 04:16:00 | 03:36:00 |     19200    |    35399
        4  | 07:52:00 | 03:28:00 |     35400    |    50999
        5  | 11:20:00 | 01:46:00 |     51000    |    58949
        6  | 13:06:00 | 03:49:00 |     58950    |    76124
        7  | 16:55:00 | 02:55:00 |     76125    |    89249
        8  | 19:50:00 | 03:05:00 |     89250    |   103124
        9  | 22:55:00 | 03:38:00 |    103125    |   119474
       10  | 26:33:00 | 02:37:00 |    119475    |   131249
       11  | 29:10:00 | 02:23:00 |    131250    |   141974
       12  | 31:33:00 | 02:27:30 |    141975    |   153029
All Tracks
    Album gain             : 0.32 dB
    Peak                   : 0.999268
    CRC32 hash             : 4D341564
    CRC32 hash (skip zero) : 4758574B
Track 01
    Track gain             : -1.20 dB
    Peak                   : 0.999268
    CRC32 hash             : 3B7B8962
    CRC32 hash (skip zero) : 3D4C530A
Track 02
    Track gain             : 1.63 dB
    Peak                   : 0.718201
    CRC32 hash             : 8648E6D4
    CRC32 hash (skip zero) : AFFC012F
Track 03
    Track gain             : 1.56 dB
    Peak                   : 0.686981
    CRC32 hash             : A1AD6FC8
    CRC32 hash (skip zero) : 91636414
Track 04
    Track gain             : 2.25 dB
    Peak                   : 0.708069
    CRC32 hash             : EFB051F3
    CRC32 hash (skip zero) : 3C4244A4
Track 05
    Track gain             : -1.02 dB
    Peak                   : 0.747742
    CRC32 hash             : F52B9595
    CRC32 hash (skip zero) : 8C6F5079
Track 06
    Track gain             : 0.43 dB
    Peak                   : 0.771637
    CRC32 hash             : 1D6A120C
    CRC32 hash (skip zero) : D968E128
Track 07
    Track gain             : 2.98 dB
    Peak                   : 0.515503
    CRC32 hash             : DAA596A5
    CRC32 hash (skip zero) : 528AAD6F
Track 08
    Track gain             : 1.22 dB
    Peak                   : 0.898376
    CRC32 hash             : C92FAFED
    CRC32 hash (skip zero) : 6D5F2067
Track 09
    Track gain             : 0.91 dB
    Peak                   : 0.790649
    CRC32 hash             : FA642BC4
    CRC32 hash (skip zero) : 3657845D
Track 10
    Track gain             : 1.27 dB
    Peak                   : 0.316925
    CRC32 hash             : 7312DC6E
    CRC32 hash (skip zero) : 666C123C
Track 11
    Track gain             : 3.62 dB
    Peak                   : 0.510071
    CRC32 hash             : 8FCAD20C
    CRC32 hash (skip zero) : C7B17F10
Track 12
    Track gain             : -2.01 dB
    Peak                   : 0.781281
    CRC32 hash             : 13A00BA4
    CRC32 hash (skip zero) : 3CCD3EDA
End of status report
Код: Выделить всё
TITLE "Canto de Pueblo Andinos (LP)"
PERFORMER "Inti-Illimani"
REM GENRE "Andean-Folk"
REM DATE "1978"
REM COMMENT "Jose Felix - Fran Solo, Ediciones MMXI"
REM DISCNUMBER 1
REM TOTALDISCS 1
REM DISCID 0207FD01
FILE "Canto de Pueblo Andinos-LP.flac" WAVE
  TRACK 01 AUDIO
    TITLE "LADO A: Carnavalito De La Quebrada De Humahuaca"
    INDEX 01 00:00:00
  TRACK 02 AUDIO
    TITLE "Sirvinhaco"
    INDEX 01 02:08:00
  TRACK 03 AUDIO
    TITLE "Pascua Linda"
    INDEX 01 04:16:00
  TRACK 04 AUDIO
    TITLE "Vasija De Barro"
    INDEX 01 07:52:00
  TRACK 05 AUDIO
    TITLE "Estudio Para Charango"
    INDEX 01 11:20:00
  TRACK 06 AUDIO
    TITLE "Senhora Chichera"
    INDEX 01 13:06:00
  TRACK 07 AUDIO
    TITLE "LADO B: Ojos Azules"
    INDEX 01 16:55:00
  TRACK 08 AUDIO
    TITLE "Campanitas"
    INDEX 01 19:50:00
  TRACK 09 AUDIO
    TITLE "A Vos Te Ha'i De Pasar"
    INDEX 01 22:55:00
  TRACK 10 AUDIO
    TITLE "Solo De Quena"
    INDEX 01 26:33:00
  TRACK 11 AUDIO
    TITLE "San Juanito"
    INDEX 01 29:10:00
  TRACK 12 AUDIO
    TITLE "Manhana Me Voy P'al Norte"
    INDEX 01 31:33:00
Код: Выделить всё
-----------------------
DON'T MODIFY THIS FILE
-----------------------
PERFORMER: auCDtect Task Manager, ver. 1.5.1RC4 build 1.5.1.5
Copyright (c) 2008-2010 y-soft. All rights reserved
[url=http://y-soft.org]http://y-soft.org[/url]
ANALYZER: auCDtect: CD records authenticity detector, version 0.8.2
Copyright (c) 2004 Oleg Berngardt. All rights reserved.
Copyright (c) 2004 Alexander Djourik. All rights reserved.
FILE: Canto de Pueblo Andinos-LP.flac
  Size: 193466467 Hash: 62560D4F2C54A56CF972DA06A1FECF8E Accuracy: -m0
  Conclusion: CDDA 100%
  Signature: 47001F587ADCF530FE3ECF4B3883588186F3FED3
'Canto de pueblos andinos, vol. 2' (Inti-Illimani 5), also known simply as 'Canto de pueblos andinos, vol. 2', is the thirteenth studio album by the chilean band Inti-Illimani. Was originally released as an LP in 1976 by Italian label dischi dello Zodiac, later to be reprinted by other european labels form of compact discs.
Spanish.
'Canto de pueblos andinos, vol. 2' (Inti-Illimani 5), también llamado simplemente como 'Canto de pueblos andinos, vol. 2', es el décimo tercer álbum de estudio de la banda chilena Inti-Illimani. Fue lanzado originalmente como un LP en 1976 por el sello italiano Dischi dello Zodiaco, para posteriormente ser reeditado por otros sellos discográficos europeos en formado de Disco compacto.
wikipedia.com
Не забывайте говорить Спасибо. Не уходите с раздачи!   
Торрент: Зарегистрирован [04 дек 2011, 11:00]
Статус:
Проверен
 
.torrent скачан: 0 раз
Хэш: 3b9b9a743986debf5b660d42a69e07b9718356ce
Размер: 204.9 МБ (214 850 497 байт)
   Стать Автором раздачи
   
Цитата

Вернуться в Фольклор, народная и этническая музыка (оцифровки)

Кто сейчас на конференции

Сейчас эту тему просматривают: нет зарегистрированных пользователей и гости: 1