(Folk) Inti Illimani - Return of the Condor - 1984, [LP] [16/44] FLAC (image+.cue), lossless

 Статистика раздачи 
Размер: 238.79 МБ   |  Зарегистрирован: 31 дек 2011, 11:35   |   .torrent скачан: 0 раз
Сидеров: 0  [ 0 байт/сек ]     Личеров: 0  [ 0 байт/сек ]  
  
Аватара пользователя
Главный редактор
Главный редактор
Я на сайте
 
Раздал: 90.01 ТБ
Скачал: 3.78 ТБ
Ратио: 24.248
Сообщения: 273922
Стаж: 9 лет 1 месяц 15 дней
Откуда: Санкт-Петербург

Inti Illimani

Return of the Condor
Жанр: Folk
Страна-производитель диска: England
Год издания диска: 1984
Издатель (лейбл): BBC Enterprises Ltd
Номер по каталогу: REH 515
Страна: Chili
Аудиокодек: FLAC (*.flac)
Тип рипа: image+.cue
Битрейт аудио: lossless
Продолжительность: 42:58
Источник (релизер): Fran Solo
Наличие сканов в содержимом раздачи: да
Vinyl rip: Deivo
Turntable: Numark USB
Cartridge: Numark HS1
Capture software: Roxio 9.0
2nd. mastered and audio correction: Fran Solo
Software: Macromedia SoundEdit, XLD Lossless.
Scan LP cover (1:1): Deivo / Enrico

01. LADO 1: Cai cai vilu (3:06)
02. Carnaval de la quebrada de Humahuaca (2:08)
03. Pascua linda (3:37)
04. Campanitas de cualquier parte (1:47)
05. Solo de quena (2:36)
06. San Juanito (2:21)
07. Tema de la quebrada de Humahuaca (3:04)
08. LADO 2: Mis llamitas (2:52)
09. Tocata y fuga (2:37)
10. La partida (3:35)
11. Raymi (2:21)
12. Trigales (3:19)
13. Fiesta de la Tirana (3:14)
14. Danza (6:21)
Код: Выделить всё
TITLE "Return Of The Condor (LP)"
PERFORMER "Inti-Illimani"
REM GENRE "Andina"
REM DATE "1984"
REM COMMENT "Deivo-Fran Solo"
REM DISCID 060A2202
FILE "Return of the Condor-LP.flac" WAVE
  TRACK 01 AUDIO
    TITLE "LADO 1: Cai cai vilu"
    INDEX 01 00:00:00
  TRACK 02 AUDIO
    TITLE "Carnaval de la quebrada de Humahuaca"
    INDEX 01 03:06:00
  TRACK 03 AUDIO
    TITLE "Pascua linda"
    INDEX 01 05:14:00
  TRACK 04 AUDIO
    TITLE "Campanitas de cualquier parte"
    INDEX 01 08:51:30
  TRACK 05 AUDIO
    TITLE "Solo de quena"
    INDEX 01 10:38:20
  TRACK 06 AUDIO
    TITLE "San Juanito"
    INDEX 01 13:14:20
  TRACK 07 AUDIO
    TITLE "Tema de la quebrada de Humahuaca"
    INDEX 01 15:35:00
  TRACK 08 AUDIO
    TITLE "LADO 2: Mis llamitas"
    INDEX 01 18:39:20
  TRACK 09 AUDIO
    TITLE "Tocata y fuga"
    INDEX 01 21:31:49
  TRACK 10 AUDIO
    TITLE "La partida"
    INDEX 01 24:08:30
  TRACK 11 AUDIO
    TITLE "Raymi"
    INDEX 01 27:43:30
  TRACK 12 AUDIO
    TITLE "Trigales"
    INDEX 01 30:04:40
  TRACK 13 AUDIO
    TITLE "Fiesta de la Tirana"
    INDEX 01 33:23:50
  TRACK 14 AUDIO
    TITLE "Danza"
    INDEX 01 36:37:50
Код: Выделить всё
-----------------------
DON'T MODIFY THIS FILE
-----------------------
PERFORMER: auCDtect Task Manager, ver. 1.5.1RC4 build 1.5.1.5
Copyright (c) 2008-2010 y-soft. All rights reserved
[url=http://y-soft.org]http://y-soft.org[/url]
ANALYZER: auCDtect: CD records authenticity detector, version 0.8.2
Copyright (c) 2004 Oleg Berngardt. All rights reserved.
Copyright (c) 2004 Alexander Djourik. All rights reserved.
FILE: Return of the Condor-LP.flac
  Size: 235859586 Hash: D46EC53E102C5E76373BF3BDCE040031 Accuracy: -m0
  Conclusion: CDDA 100%
  Signature: 7EE85D0389F0714A8927F467018C2B84B067E79E
The success of the series "The Flight of the Condor", gave way to their respective sequel "Return of the Condor".
I'll be very honest: I didn't see the second installment of the BBC ... simply not spent on TV ? a penalty. But, good industry shouldn't stop. No, sir! As it was released in LP format this sequel.
The present disc is excellent in the musical, a compilation of hits from different LPs called "Song of Andean peoples" of the great "Inti-Illimani". The sound is exceptional, an issue that is debatable in my select circle of friends-collectors, as digitalized versions specifically for CD, the recordings are very opaque and very noisy ...
Check what I say and listen the kenas and panpipes to the magnificent Inti.
Fran Solo
Spanish.
El éxito alcanzado por la serie "El vuelo del cóndor", dio paso a su respectiva secuela "Retorno del cóndor".
Seré muy honesto: no vi la segunda entrega de la BBC... simplemente no la pasaron por TV ¿? una pena. Pero, bueno la industria no debe parar ¡no, señor! Por lo mismo se publicó en formato de LP esta secuela.
El disco que presento es excelente en lo musical, una compilación de los éxitos de distintos LPs denominado "Canto de pueblos andinos" de los grandes "Inti-Illimani". El sonido es excepcional, cuestión que se presta a discusión en mi distinguido círculo de amigos-coleccionistas, ya que en versiones digitalizadas especialmente para CD, las grabaciones son muy opacas o muy ruidosas...
Comprueben lo que digo y escuchen el canto de kenas y zampoñas por los magníficos Inti.
Fran Solo
Не забывайте говорить Спасибо. Не уходите с раздачи!   
Торрент: Зарегистрирован [31 дек 2011, 11:35]
Статус:
Проверен
 
.torrent скачан: 0 раз
Хэш: 83d4d82a5bee0913c54edd6a018d1033df09c76a
Размер: 238.79 МБ (250 393 073 байт)
   Стать Автором раздачи
   
Цитата

Вернуться в Фольклор, народная и этническая музыка (оцифровки)

Кто сейчас на конференции

Сейчас эту тему просматривают: нет зарегистрированных пользователей и гости: 1