(Andean-Folk) [LP] [24/96] Inti-Illimani - Autores Chilenos - 1971 (mono), FLAC (tracks+.cue)

 Статистика раздачи 
Размер: 666.39 МБ   |  Зарегистрирован: 06 ноя 2017, 05:52   |   .torrent скачан: 0 раз
Сидеров: 0  [ 0 байт/сек ]     Личеров: 0  [ 0 байт/сек ]  
  
Аватара пользователя
Главный редактор
Главный редактор
 
Раздал: 90.01 ТБ
Скачал: 3.78 ТБ
Ратио: 24.248
Сообщения: 274856
Стаж: 9 лет 1 месяц 20 дней
Откуда: Санкт-Петербург

Inti-Illimani - Autores Chilenos (mono)
Жанр: Andean-Folk
Носитель: LP
Год выпуска: 1971
Лейбл: Dicap - JJL-13
Страна-производитель: NL
Аудио кодек: FLAC
Тип рипа: tracks+.cue
Формат записи: 24/96
Формат раздачи: 24/96
Продолжительность: 34:58
Треклист:
A1 Run Run Se Fue P’al Norte
A2 La Exilada Del Sur
A3 Tatati
A4 Rin Del Angelito
A5 Ya Parte El Galgo Terrible
B1 Lo Que Mas Quiero
B2 Volver A Los 17
B3 Charagua
B4 Corazon Maldito
B5 El Aparecido
Источник оцифровки: LP Rip & Full Scan LP Cover: Fran Solo
Код класса состояния винила: NM-
Устройство воспроизведения: Technics SL-1200MK2 Quartz
Головка звукоснимателя: SHURE M97xE With JICO SAS Stylus
Предварительный усилитель: Marantz 2252
АЦП: E-MU 0404
Обработка: Manual DeClick with iZotope RX5
----------------------------------------------------------------------------------------------
Analyzed folder: /Inti-Illimani - Autores Chilenos (LP)
----------------------------------------------------------------------------------------------
DR Peak RMS Filename
----------------------------------------------------------------------------------------------
DR10 -7.46 dB -22.04 dB 01 Inti-Illimani - LADO 1- Run Run Se Fue P'al Norte.wav
DR13 -2.03 dB -18.86 dB 02 Inti-Illimani - La Exiliada Del Sur.wav
DR11 -3.00 dB -17.35 dB 03 Inti-Illimani - Tatati.wav
DR11 -5.35 dB -20.48 dB 04 Inti-Illimani - Rin Del Angelito.wav
DR13 -0.14 dB -16.43 dB 05 Inti-Illimani - Ya Parte El Galgo Terrible.wav
DR12 -3.28 dB -17.52 dB 06 Inti-Illimani - LADO 2- Lo Que Mas Quiero.wav
DR11 -6.70 dB -21.40 dB 07 Inti-Illimani - Volver A Los 17.wav
DR11 -2.63 dB -17.29 dB 08 Inti-Illimani - Charagua.wav
DR12 -2.86 dB -18.20 dB 09 Inti-Illimani - Corazon Maldito.wav
DR11 -5.08 dB -19.95 dB 10 Inti-Illimani - El Aparecido.wav
----------------------------------------------------------------------------------------------
Number of files: 10
Official DR value: DR11
==============================================================================================
Ernesto Perez De Arce, Horacio Duran, Horacio Salinas, Jorge Coulon, Jose Seves, Max Berru
Autores Chilenos is the sixth official album of the Chilean Andean-Folk band Inti-Illimani, published in 1971. The album is a sort of homage to the Chilean Authors who initiated the movement of the New Chilean Song. On July 1, 2003, around the multiple re-editions and remasters of Inti-Illimani LP records, Warner Music Chile re-released the CD and merged it with the album A la Revolucion Mexicana, originally edited in 1969.
In April 2008, the Chilean edition of Rolling Stone ranked this album as the 18th best Chilean record of all time.
Autores Chilenos - шестой официальный альбом чилийской андина-фолк-группы Inti-Illimani, изданный в 1971 году. Альбом является своего рода данью уважения к чилийским авторам, которые инициировали движение Новой чилийской песни. 1 июля 2003 года, во многих переизданиях и ремастерах записей Inti-Illimani , Warner Music Chile переиздала компакт-диск и объединила его с альбомом A la Revolucion Mexicana 1969-го года.
В апреле 2008 года чилийское издание Rolling Stone оценило этот альбом как 18-й лучший чилийский альбом всех времен.
Written-By:
Violeta Parra - A1, A2, A4, B1, B2, B4
P. Manns - A2
Horacio Salinas - A3
P. Neruda, S. Ortega - A4
I. Parra - B1
Victor Jara - B3,B5
#7#77#77
Не забывайте говорить Спасибо. Не уходите с раздачи!   
Торрент: Зарегистрирован [06 ноя 2017, 05:52]
Статус:
Проверен
 
.torrent скачан: 0 раз
Хэш: 066fce465226f97d568badb84e40303619d96189
Размер: 666.39 МБ (698 763 327 байт)
   Стать Автором раздачи
   
Цитата
  • Похожие торренты
    Ответы
    Просмотры
    Последнее сообщение

Вернуться в Фольклор, народная и этническая музыка (оцифровки)

Кто сейчас на конференции

Сейчас эту тему просматривают: нет зарегистрированных пользователей и гости: 1