(Country Rock) [LP] [24/96] Chet Atkins - Chet Atkins In Hollywood (1959) - 2005, FLAC (tracks+.cue)

 Статистика раздачи 
Размер: 732.08 МБ   |  Зарегистрирован: 17 дек 2016, 22:41   |   .torrent скачан: 0 раз
Сидеров: 0  [ 0 байт/сек ]     Личеров: 0  [ 0 байт/сек ]  
  
Аватара пользователя
Главный редактор
Главный редактор
 
Раздал: 90.01 ТБ
Скачал: 3.78 ТБ
Ратио: 24.248
Сообщения: 274043
Стаж: 9 лет 1 месяц 16 дней
Откуда: Санкт-Петербург

Chet Atkins - Chet Atkins In Hollywood (1959)
Жанр: Country Rock
Носитель: LP
Год выпуска: 2005
Лейбл: Classic Records - LSP-1993
Страна-производитель: USA
Аудио кодек: FLAC
Тип рипа: tracks+.cue
Формат записи: 24/96
Формат раздачи: 24/96
Продолжительность: 00:34:50
Треклист:
Side 1
A1 - Armen's Theme - 2:07
A2 - Let It Be Me - 3:12
A3 - Theme From "Picnic" - 3:20
A4 - Theme From A Dream - 3:55
A5 - Estrellita - 2:47
A6 - Jitterbug Waltz - 2:56
Side 2
B1 - Little Old Lady - 2:15
B2 - Limelight - 2:39
B3 - The Three Bells - 2:56
B4 - Santa Lucia - 2:43
B5 - Greensleeves - 3:01
B6 - Meet Mr. Callaghan - 2:21
Credits
Arranged by A. Fassio and Dennis Farnon
Orchestrated by Dennis Farnon
Produced by Chet Atkins
Producer - Dick Peirce
Notes
Recorded in Hollywood, CA on October 23, 1958
Barcode and Other Identifiers
Label Code: LPM/LSP-1993 RE
Источник оцифровки: третьим лицом
Код класса состояния винила: Ex
Устройство воспроизведения: Technics SL1200-MK5
Головка звукоснимателя: Shure V15VxMR
Предварительный усилитель: SimAudio Moon 110LP
АЦП: Native Instruments Audio4DJ
Программа-оцифровщик: Sound Forge 10
Обработка: ClickRepair (manual mode)
Доп. информация:
DR analysis:
——————————————————————————–
DR Peak RMS Duration Track
——————————————————————————–
DR13 -1.02 dB -16.29 dB 2:09 01-Armen’s Theme
DR12 -0.34 dB -15.84 dB 3:16 02-Let It Be Me
DR12 -0.03 dB -14.77 dB 3:22 03-Theme From “Picnic”
DR10 -1.14 dB -14.07 dB 3:58 04-Theme From A Dream
DR11 -2.73 dB -17.06 dB 2:51 05-Estrelita
DR12 -0.71 dB -15.52 dB 2:59 06-Jitterbug Waltz
DR12 -0.36 dB -13.99 dB 2:18 07-Little Old Lady
DR12 -2.94 dB -17.75 dB 3:09 08-Limelight
DR12 -0.36 dB -16.07 dB 3:00 09-The Three Bells
DR12 -0.36 dB -15.01 dB 2:46 10-Santa Lucia
DR11 -1.60 dB -16.61 dB 2:42 11-Greensleeves
DR12 -0.03 dB -14.47 dB 2:20 12-Meet Mr. Callaghan
——————————————————————————–
Number of tracks: 12
Official DR value: DR12
Samplerate: 96000 Hz
Channels: 2
Bits per sample: 24
Bitrate: 2974 kbps
Codec: FLAC
================================================================================
Не забывайте говорить Спасибо. Не уходите с раздачи!   
Торрент: Зарегистрирован [17 дек 2016, 22:41]
Статус:
Проверен
 
.torrent скачан: 0 раз
Хэш: d1f95eeeb5c674f962252365b3a3736222ef3be1
Размер: 732.08 МБ (767 638 602 байт)
   Стать Автором раздачи
   
Цитата

Вернуться в Фольклор, народная и этническая музыка (оцифровки)

Кто сейчас на конференции

Сейчас эту тему просматривают: нет зарегистрированных пользователей и гости: 1