(Folk) [LP] [24/96] Joan Baez - The Best of Joan Baez - 1968, FLAC (image+.cue)

 Статистика раздачи 
Размер: 519.93 МБ   |  Зарегистрирован: 29 сен 2010, 20:16   |   .torrent скачан: 0 раз
Сидеров: 0  [ 0 байт/сек ]     Личеров: 0  [ 0 байт/сек ]  
  
Аватара пользователя
Главный редактор
Главный редактор
Я на сайте
 
Раздал: 90.01 ТБ
Скачал: 3.78 ТБ
Ратио: 24.248
Сообщения: 274792
Стаж: 9 лет 1 месяц 19 дней
Откуда: Санкт-Петербург

Joan Baez - The Best of Joan Baez - 1968
Жанр: Folk
Год выпуска: 1968
Лейбл: Saga Eros 8075
Страна-производитель: UK
Аудио кодек: FLAC
Тип рипа: image+.cue
Формат записи: 32/192
Формат раздачи: 24/96
Продолжительность: 00:26:01
Тэги в .cue: прописаны
Источник оцифровки: автором раздачи
Код класса состояния винила: VG
Устройство воспроизведения: Электроника ЭП 017С
Головка звукоснимателя: ГЗМ – 028 (Корвет)
Предварительный усилитель: AMX - 100 (LTO®)
АЦП: Juli@
Программа-оцифровщик: Adobe Audition CS6 5.0.2.
Обработка: удаление щелчков
Side 1:
01. On The Banks Of The Ohio
02. Oh!What A Beautiful City
03. So Soon In The Morning
04. Lowlands
05. Kitty

Side 2:
06. Black Is The Colour
07. What You Gonna Call Your Pretty Little Baby
08. Don't Weep After Me
09. Sail Away Ladies
10. Careless Love

Joan Baez (1,2,4,6,7,9)
Joan Baez & Bill Wood (3,5,10)
Joan Baez,Bill Wood & Ted Alevizos (8)

Код: Выделить всё
REM GENRE Folk
REM DATE 1968
REM COMENT Vinyl, LP, Compilation, Saga Eros 8075, UK
TITLE The Best Of Joan Baez
PERFORMER Joan Baez
FILE "01. The Best Of Joan Baez - Side 1.flac" WAVE
  TRACK 01 AUDIO
    TITLE "01. On The Banks Of The Ohio"
    INDEX 01 00:00:00
  TRACK 02 AUDIO
    TITLE "02. Oh!What A Beautiful City"
    INDEX 01 02:37:31
  TRACK 03 AUDIO
    TITLE "03. So Soon In The Morning"
    INDEX 01 05:55:06
  TRACK 04 AUDIO
    TITLE "04. Lowlands"
    INDEX 01 08:02:70
  TRACK 05 AUDIO
    TITLE "05. Kitty"
    INDEX 01 10:49:03
FILE "02. The Best Of Joan Baez - Side 2.flac" WAVE
  TRACK 06 AUDIO
    TITLE "06. Black Is The Colour"
    INDEX 01 00:00:00
  TRACK 07 AUDIO
    TITLE "07. What You Gonna Call Your Pretty Little Baby"
    INDEX 01 02:43:30
  TRACK 08 AUDIO
    TITLE "08. Don't Weep After Me"
    INDEX 01 05:12:06
  TRACK 09 AUDIO
    TITLE "09. Sail Away Ladies"
    INDEX 01 07:59:58
  TRACK 10 AUDIO
    TITLE "10. Careless Love"
    INDEX 01 10:45:00
В папке раздачи.

Большое человеческое спасибо уважаемому boyhunt за техническую поддержку!

Материал пероцифрован и представлен в лучшем качестве.
Торрент перезалит 09.09.2013.
Не забывайте говорить Спасибо. Не уходите с раздачи!   
Торрент: Зарегистрирован [29 сен 2010, 20:16]
Статус:
Проверен
 
.torrent скачан: 0 раз
Хэш: 5b0927120e86ba00bcd8b71246019688851933f1
Размер: 519.93 МБ (545 185 586 байт)
   Стать Автором раздачи
   
Цитата
  • Похожие торренты
    Ответы
    Просмотры
    Последнее сообщение

Вернуться в Фольклор, народная и этническая музыка (оцифровки)

Кто сейчас на конференции

Сейчас эту тему просматривают: нет зарегистрированных пользователей и гости: 1