(Country, Pop, Pop-Rock) [LP] [24/96] Kenny Rogers - Eyes That See in the Dark - 1983, FLAC (image+.cue)

 Статистика раздачи 
Размер: 793.49 МБ   |  Зарегистрирован: 08 авг 2015, 17:07   |   .torrent скачан: 0 раз
Сидеров: 0  [ 0 байт/сек ]     Личеров: 0  [ 0 байт/сек ]  
  
Аватара пользователя
Главный редактор
Главный редактор
 
Раздал: 90.01 ТБ
Скачал: 3.78 ТБ
Ратио: 24.248
Сообщения: 274898
Стаж: 9 лет 1 месяц 21 день
Откуда: Санкт-Петербург

Kenny Rogers - Eyes That See in the Dark
Жанр: Country, Pop, Pop-Rock
Носитель: LP
Год выпуска: 1983
Лейбл: RCA Records. RCA – AFL1-4697
Страна-производитель: US
Аудио кодек: FLAC
Тип рипа: image+.cue
Формат записи: 24/96
Формат раздачи: 24/96
Продолжительность: 40:03
Треклист:
Side 1.
1. This Woman (Barry Gibb, Albhy Galuten)
2. You and I (Barry Gibb, Robin Gibb, Maurice Gibb)
3. Buried Treasure (Barry Gibb, Robin Gibb, Maurice Gibb)
4. Islands in the Stream (Barry Gibb, Robin Gibb, Maurice Gibb) (duet with Dolly Parton)
5. Living with You (Barry Gibb, Robin Gibb, Maurice Gibb)
Side 2.
6. Evening Star (Barry Gibb, Maurice Gibb)
7. Hold Me (Barry Gibb, Robin Gibb, Maurice Gibb)
8. Midsummer Nights (Barry Gibb, Albhy Galuten)
9. I Will Always Love You (Barry Gibb, Maurice Gibb)
10. Eyes That See in the Dark (Barry Gibb, Maurice Gibb)
Источник оцифровки: Valiko(aka Валентин)
Код класса состояния винила: VG++
Устройство воспроизведения: Victor JL-B37
Головка звукоснимателя: SHURE M97xE/Stylus SAS VN35HE "Special Tracking" JICO
Предварительный усилитель: VICTOR P-3030
АЦП: ESI Juli@
Программа-оцифровщик: Adobe Audition CS 6
Обработка: не производилась
foobar2000 1.3.8 / Dynamic Range Meter 1.1.1
log date: 2015-08-08 19:39:09
--------------------------------------------------------------------------------
Analyzed: Kenny Rogers / Eyes That See in the Dark
--------------------------------------------------------------------------------
DR Peak RMS Duration Track
--------------------------------------------------------------------------------
DR14 -0.45 dB -16.08 dB 3:58 01-Side 1. This Woman
DR12 -2.06 dB -17.21 dB 4:37 02-You and I
DR13 -2.04 dB -16.65 dB 4:12 03-Buried Treasure
DR13 -0.96 dB -15.57 dB 4:10 04-Islands in the Stream
DR13 -1.97 dB -17.11 dB 3:13 05-Living with You
DR14 -0.79 dB -17.03 dB 3:40 06-Side 2. Evening Star
DR12 -3.47 dB -19.76 dB 4:14 07-Hold Me
DR12 -1.31 dB -15.23 dB 3:51 08-Midsummer Nights
DR13 -0.89 dB -17.26 dB 4:22 09-I Will Always Love You
DR12 -2.06 dB -16.97 dB 3:45 10-Eyes That See in the Dark
--------------------------------------------------------------------------------
Number of tracks: 10
Official DR value: DR13
Samplerate: 96000 Hz
Channels: 2
Bits per sample: 24
Bitrate: 2742 kbps
Codec: FLAC
================================================================================
Kenny Rogers — lead vocals
Barry Gibb — background vocals, guitar, arranger
Maurice Gibb — bass, synthesizer, guitar, background vocals
Albhy Galuten — synthesizer, piano, arranger
Tim Renwick — guitar
George Terry — guitar
George Bitzer — piano, synthesizer
Ron Ziegler — drums
Joe Lala — percussion
Dolly Parton — lead vocals on "Islands in the Stream"
Denise DeCaro — background vocals on "I Will Always Love You"
Myrna Mathews — background vocals on "I Will Always Love You"
Marti McCall — background vocals on "I Will Always Love You"
Larry Gatlin — background vocals on "Buried Treasure" and "Evening Star"
Steve Gatlin — background vocals on "Buried Treasure" and "Evening Star"
Rudy Gatlin — background vocals on "Buried Treasure" and "Evening Star"
Fred Tackett — guitar on "Evening Star"
Mitch Holder — guitar on "Evening Star"
John Hobbs — piano on "Evening Star"
Paul Leim — drums on "Evening Star"
Sid Sharp — concertmaster
Jimmie Haskell — strings arrangement on "Hold Me"
Peter Graves — horns on "You and I" and "Islands in the Stream"
Whit Sidener — horns on "You and I" and "Islands in the Stream"
Ken Faulk — horns on "You and I" and "Islands in the Stream"
Neal Bonsanti — horns on "You and I" and "Islands in the Stream"
Robin Gibb — background vocals on "Living with You"
Karl Richardson — sound engineer
Steve Klein — sound engineer
Producer:Gibb-Galuten-Richardson
#7#77#77
Не забывайте говорить Спасибо. Не уходите с раздачи!   
Торрент: Зарегистрирован [08 авг 2015, 17:07]
Статус:
Проверен
 
.torrent скачан: 0 раз
Хэш: 60371570c77a320c3b397c64496887bc57547c45
Размер: 793.49 МБ (832 031 701 байт)
   Стать Автором раздачи
   
Цитата

Вернуться в Фольклор, народная и этническая музыка (оцифровки)

Кто сейчас на конференции

Сейчас эту тему просматривают: нет зарегистрированных пользователей и гости: 1