(Folk, Romani) [7"] [24/96] Лацы Дашкенти - Песни Венгерских Цыган - 1975, FLAC (tracks)

 Статистика раздачи 
Размер: 247.61 МБ   |  Зарегистрирован: 03 окт 2016, 04:19   |   .torrent скачан: 0 раз
Сидеров: 0  [ 0 байт/сек ]     Личеров: 0  [ 0 байт/сек ]  
  
Аватара пользователя
Главный редактор
Главный редактор
 
Раздал: 90.01 ТБ
Скачал: 3.78 ТБ
Ратио: 24.248
Сообщения: 273485
Стаж: 9 лет 1 месяц 10 дней
Откуда: Санкт-Петербург

Лацы Дашкенти - Песни Венгерских Цыган
Жанр: Folk, Romani
Носитель: 7"
Год выпуска: 1975
Лейбл: Мелодия - С62 06223-24
Страна-производитель: USSR
Аудио кодек: FLAC
Тип рипа: tracks
Тэги: прописаны
Формат записи: 24/192
Формат раздачи: 24/96
Продолжительность: 00:12:58
Источник оцифровки: автором раздачи
Код класса состояния винила: G
Устройство воспроизведения: Электроника ЭП 017С
Головка звукоснимателя: ГЗМ – 028 (Корвет)
Предварительный усилитель: AMX - 100 (LTO®)
АЦП: Juli@
Программа-оцифровщик: Adobe Audition CS6 5.0.2
Обработка: реставрация
Треклист
:
01. Чирикли
02. Мар, Дяндя
03. Са Э Лума
04. Окхам Тэ Лэ Гэлас



Код: Выделить всё
foobar2000 1.1.3 / Dynamic Range Meter 1.1.1
log date: 2016-10-03 09:40:21
--------------------------------------------------------------------------------
Analyzed: Лацы Дашкенти / Песни венгерских цыган
--------------------------------------------------------------------------------
DR         Peak         RMS     Duration Track
--------------------------------------------------------------------------------
DR11      -0.17 dB   -14.10 dB      3:59 ?-Чирикли
DR11      -0.17 dB   -15.14 dB      2:32 ?-Мар, Дяндя
DR11      -1.17 dB   -14.03 dB      3:16 ?-Са Э Лума
DR11      -1.17 dB   -13.84 dB      3:11 ?-Окхам Тэ Лэ Гэлас
--------------------------------------------------------------------------------
Number of tracks:  4
Official DR value: DR11
Samplerate:        96000 Hz
Channels:          2
Bits per sample:   24
Bitrate:           2649 kbps
Codec:             FLAC
================================================================================

Этих пластинок у меня аж шесть штук! Причём, все "не игранные", но, к сожалению, качество печати оставляет желать лучшего: артефакты и искажения. Выбрал одну более-менее и "подлечил"...


Не забывайте говорить Спасибо. Не уходите с раздачи!   
Торрент: Зарегистрирован [03 окт 2016, 04:19]
Статус:
Проверен
 
.torrent скачан: 0 раз
Хэш: 806c58900faa996123647633f937804501d1f0fd
Размер: 247.61 МБ (259 634 439 байт)
   Стать Автором раздачи
   
Цитата

Вернуться в Фольклор, народная и этническая музыка (оцифровки)

Кто сейчас на конференции

Сейчас эту тему просматривают: нет зарегистрированных пользователей и гости: 1