(Celtic, Folk) [LP] [24/96] Alan Stivell - Reflets - 1970, FLAC (tracks+.cue)

 Статистика раздачи 
Размер: 646.43 МБ   |  Зарегистрирован: 21 ноя 2017, 11:59   |   .torrent скачан: 0 раз
Сидеров: 0  [ 0 байт/сек ]     Личеров: 0  [ 0 байт/сек ]  
  
Аватара пользователя
Главный редактор
Главный редактор
Я на сайте
 
Раздал: 90.01 ТБ
Скачал: 3.78 ТБ
Ратио: 24.248
Сообщения: 273922
Стаж: 9 лет 1 месяц 15 дней
Откуда: Санкт-Петербург

Alan Stivell - Reflets
Жанр: Celtic, Folk
Носитель: LP
Год выпуска: 1970
Лейбл: Fontana - 6312.011
Страна-производитель: France
Аудио кодек: FLAC
Тип рипа: tracks+.cue
Формат записи: 24/96
Формат раздачи: 24/96
Продолжительность: 00:33:55
Side 1
A1 - Reflets
Written-By - A. Stivell
A2 - Suite Des Montagnes
Written-By - Celtic Trad.
A3 - Marig Ar Pollanton
Written-By - Breton Trad.
A4 - Broceliande
Written-By - A. Stivell
A5 - Son Ar Chistr
Written-By - Breton Trad.
Side 2
B1 - Sally Free And Easy
Written-By - Cyril Tawney
B2 - Suite Irlandaise
Written-By - Irish Trad.
B3 - Sil Vestrig
Written-By - Breton Trad.
B4 - Tenval An Deiz
Written-By - Breton 19th Century Trad.
B5 - Je Suis Né Au Milieu De La Mer
Written-By - Jef Le Penven, J.P. Kalloc'h
Companies etc
Printed By - Imprimerie S.P.P.
Credits
Banjo – Steve Waring
Bass Guitar – Marc Thomas
Cello – Hubert Varron
Choir – Choeurs De Ker-Vreizh
Conductor [Choir] – Daniele Licari
Double Bass – Marc Migiani
Electric Guitar – Youenn Robineau
Fiddle – Philippe Fromont
Liner Notes – Jacques Vassal
Liner Notes, Arranged By – A. Stivell (tracks: A2, A3, A5, B1, B2, B3, B4, B5)
Organ [Electronic], Mellotron – Gilbert Cascales, Roger Mason
Percussion – Bernard Luba, Gilles Robineau, Loeiz Roujon, Yann-Fanch Le Merdy
Producer – Franck Giboni
Twelve-String Guitar – Alan Guillou
Barcode and Other Identifiers
Matrix / Runout (Side A, stamped): 6312011 1 380 A 21
Matrix / Runout (Side B, stamped): 6312011 2 380 A 14
Price Code: Ⓣ
Rights Society: BIEM
Источник оцифровки: третьим лицом
Код класса состояния винила: Ex
Устройство воспроизведения: Technics SL-1200MK2 Quartz
Головка звукоснимателя: SHURE M97xE
Предварительный усилитель: Marantz 2252
АЦП: E-MU 0404
Программа-оцифровщик: Не указано
Обработка: DeClick with iZotope RX5: Only Manual (Click per click)
Доп. информация:
----------------------------------------------------------------------------------------------
Analyzed folder: /Alan Stivell - Reflets (LP)
----------------------------------------------------------------------------------------------
DR Peak RMS Filename
----------------------------------------------------------------------------------------------
DR11 -0.13 dB -15.27 dB 01 Alan Stivell - LADO 1- Reflets.wav
DR13 -0.70 dB -17.34 dB 02 Alan Stivell - Suite Des Montagnes.wav
DR12 -0.54 dB -14.86 dB 03 Alan Stivell - Marig Ar Pollanton.wav
DR12 -0.74 dB -15.82 dB 04 Alan Stivell - Broceliande.wav
DR11 -1.44 dB -15.53 dB 05 Alan Stivell - Son Ar Chistr.wav
DR11 -0.58 dB -14.99 dB 06 Alan Stivell - LADO 2- Sally Free And Easy.wav
DR13 -0.47 dB -16.72 dB 07 Alan Stivell - Suite Irlandaise.wav
DR11 -0.22 dB -14.57 dB 08 Alan Stivell - Sil Vestrig.wav
DR12 -0.12 dB -14.45 dB 09 Alan Stivell - Tenval An Deiz.wav
DR12 -0.37 dB -15.71 dB 10 Alan Stivell - Je Suis Ne Au Milieu De La Mer.wav
----------------------------------------------------------------------------------------------
Number of files: 10
Official DR value: DR12
==============================================================================================
Не забывайте говорить Спасибо. Не уходите с раздачи!   
Торрент: Зарегистрирован [21 ноя 2017, 11:59]
Статус:
Проверен
 
.torrent скачан: 0 раз
Хэш: 7666aad39373f61cef7dea0400fac0f8b31df152
Размер: 646.43 МБ (677 832 728 байт)
   Стать Автором раздачи
   
Цитата
  • Похожие торренты
    Ответы
    Просмотры
    Последнее сообщение

Вернуться в Фольклор, народная и этническая музыка (оцифровки)

Кто сейчас на конференции

Сейчас эту тему просматривают: нет зарегистрированных пользователей и гости: 1