(Country) [LP] [24/96] Willie Nelson - Tougher Than Leather - 1983, FLAC (tracks+.cue)

 Статистика раздачи 
Размер: 608.09 МБ   |  Зарегистрирован: 13 апр 2018, 20:34   |   .torrent скачан: 0 раз
Сидеров: 0  [ 0 байт/сек ]     Личеров: 0  [ 0 байт/сек ]  
  
Аватара пользователя
Главный редактор
Главный редактор
 
Раздал: 90.01 ТБ
Скачал: 3.78 ТБ
Ратио: 24.248
Сообщения: 274856
Стаж: 9 лет 1 месяц 20 дней
Откуда: Санкт-Петербург

Willie Nelson - Tougher Than Leather
Жанр: Country
Носитель: LP, Remastered, Half-Speed Mastered
Год выпуска: 1983
Лейбл: Columbia - HC 48248
Страна-производитель: US
Аудио кодек: FLAC
Тип рипа: tracks+.cue
Формат записи: 32/96
Формат раздачи: 24/96
Продолжительность: 00:31:08
Side 1
A1 - My Love For The Rose 0:35
Written-By - W. Nelson
A2 - Changing Skies 3:02
Written-By - W. Nelson
A3 - Tougher Than Leather 4:51
Written-By - W. Nelson
A4 - Little Old Fashioned Karma 3:16
Written-By - W. Nelson
A5 - Somewhere In Texas (Part I) 0:51
Written-By - W. Nelson
A6 - Beer Barrel Polka 2:41
Arranged By - Bobbie Nelson
Side 2
B1 - Summer Of Roses 3:10
Written-By - W. Nelson
B2 - Somewhere In Texas (Part II) 0:54
Written-By - W. Nelson
B3 - My Love For The Rose 0:27
Written-By - W. Nelson
B4 - The Convict And The Rose 3:50
Written-By - W. Nelson
B5 - Changing Skies 0:52
Written-By - W. Nelson
B6 - I Am The Forest 4:14
Written-By - W. Nelson
B7 - Nobody Slides, My Friend 1:36
Written-By - W. Nelson
Companies, etc.
Phonographic Copyright (p) - CBS Inc.
Copyright (c) - CBS Inc.
Manufactured By - Columbia Records
Manufactured By - CBS Inc.
Mastered At - Woodland Studios
Credits
Bass - Bee Spears
Cover, Design [Art Design] - David Zettner
Design [Leather Design], Drums - Paul English
Engineer - Larry Greenhill
Fiddle, Mandolin - Johnny Gimble
Guitar - Grady Martin, Jody Payne
Harmonica - Mickey Raphael
Mastered By - Denny Purcell
Piano - Bobbie Nelson
Producer, Arranged By - Bee Spears, Willie Nelson
Vocals, Guitar - Willie Nelson
Notes
Embossed cover, Audiophile Release with Half-Speed mastering.
Barcode and Other Identifiers
Barcode (String): 07464482481
Barcode (Printed Text): 7464-48248-1
Matrix / Runout (Side A): HAL 48248-1A COLUMBIA, NY
Matrix / Runout (Side B): HAL 48248-1B COLUMBIA, NY
Источник оцифровки: третьим лицом
Код класса состояния винила: NM
Устройство воспроизведения: Technics SL 1210 MKII
Головка звукоснимателя: Ortofon Cadenza Black M/C
Предварительный усилитель: Cambridge Audio AZUR640P M/C
АЦП: Benchmark ADC1 A/D
Программа-оцифровщик: Adobe audition 3.0
Обработка: de-clicking in Adobe Audition
Доп. информация:
foobar2000 1.3.7 / Dynamic Range Meter 1.1.1
log date: 2015-06-02 14:05:25
--------------------------------------------------------------------------------
Analyzed: Willie Nelson / Tougher Than Leather
--------------------------------------------------------------------------------
DR Peak RMS Duration Track
--------------------------------------------------------------------------------
DR13 -9.01 dB -26.24 dB 0:39 01-My Love For The Rose
DR15 -0.01 dB -21.29 dB 3:03 02-Changing Skies
DR14 -0.63 dB -17.99 dB 4:53 03-Tougher Than Leather
DR13 -1.08 dB -17.32 dB 3:19 04-Little Old Fashioned Karma
DR11 -6.41 dB -20.67 dB 0:54 05-Somewhere In Texas (Part I)
DR14 -4.78 dB -22.17 dB 2:46 06-Beer Barrel Polka
DR15 -1.88 dB -20.86 dB 3:13 07-Summer Of Roses
DR13 -2.62 dB -18.63 dB 0:56 08-Somewhere In Texas (Part II)
DR12 -8.71 dB -25.84 dB 0:38 09-My Love For The Rose
DR11 -5.17 dB -20.50 dB 3:52 10-The Convict And The Rose
DR12 -5.94 dB -21.07 dB 0:55 11-Changing Skies
DR13 -2.72 dB -18.99 dB 4:18 12-I Am The Forest
DR14 -0.19 dB -17.02 dB 1:42 13-Nobody Slides, My Friend
--------------------------------------------------------------------------------
Number of tracks: 13
Official DR value: DR13
Samplerate: 96000 Hz
Channels: 2
Bits per sample: 24
Bitrate: 2652 kbps
Codec: FLAC
================================================================================
Не забывайте говорить Спасибо. Не уходите с раздачи!   
Торрент: Зарегистрирован [13 апр 2018, 20:34]
Статус:
Проверен
 
.torrent скачан: 0 раз
Хэш: 15cc67bcd6e36161466b18c7267f6d339570f98a
Размер: 608.09 МБ (637 629 221 байт)
   Стать Автором раздачи
   
Цитата
  • Похожие торренты
    Ответы
    Просмотры
    Последнее сообщение

Вернуться в Фольклор, народная и этническая музыка (оцифровки)

Кто сейчас на конференции

Сейчас эту тему просматривают: нет зарегистрированных пользователей и гости: 1