(Country) [LP] [24/96] Willie Nelson - Red Headed Stranger (1975) - 1979, FLAC (tracks+.cue)

 Статистика раздачи 
Размер: 643.53 МБ   |  Зарегистрирован: 19 окт 2016, 19:32   |   .torrent скачан: 0 раз
Сидеров: 0  [ 0 байт/сек ]     Личеров: 0  [ 0 байт/сек ]  
  
Аватара пользователя
Главный редактор
Главный редактор
Я на сайте
 
Раздал: 90.01 ТБ
Скачал: 3.78 ТБ
Ратио: 24.248
Сообщения: 273585
Стаж: 9 лет 1 месяц 11 дней
Откуда: Санкт-Петербург

Willie Nelson - Red Headed Stranger (1975)
Жанр: Country
Носитель: LP, Repress
Год выпуска: 1979
Лейбл: Columbia - KC 33482
Страна-производитель: USA
Аудио кодек: FLAC
Тип рипа: tracks+.cue
Формат записи: 24/96
Формат раздачи: 24/96
Продолжительность: 00:34:01
Side 1
A1 - Time Of The Preacher 2:24
Written-By - W. Nelson
A2 - I Couldn't Believe It Was True 1:32
Written-By - E. Arnold, W. Fowler
A3 - Time Of The Preacher Theme 1:12
Written-By - W. Nelson
A4 - Medley: Blue Rock Montana / Red Headed Stranger 1:32
Written-By - C. Stutz, E. Lindeman, W. Nelson
A5 - Blue Eyes Crying In The Rain 2:17
Written-By - F. Rose
A6 - Red Headed Stranger 3:57
Written-By - C. Stutz, E. Lindeman
A7 - Time Of The Preacher Theme 0:25
Written-By - W. Nelson
A8 - Just As I Am 1:45
Arranged By - W. Nelson
Side 2
B1 - Denver 0:55
Written-By - W. Nelson
B2 - O'er The Waves 0:48
Arranged By - W. Nelson
B3 - Down Yonder 1:53
Written-By - L. W. Gilbert
B4 - Can I Sleep In Your Arms 5:22
Written-By - H. Cochran
B5 - Remember Me 2:50
Written-By - S. Wiseman
B6 - Hands On The Wheel 4:20
Written-By - W. Callery
B7 - Bandera 2:18
Written-By - W. Nelson
Companies, etc.
Pressed By - Columbia Records Pressing Plant, Pitman
Credits
Artwork By [Cover Art], Design - Monica White
Artwork By [Graphics], Design - Lynn Capri
Bass - Bee Spears
Drums - Billy English, Paul English
Engineer - Phil York
Guitar - Bucky Meadows
Guitar, Mandolin - Jody Payne
Harmonica - Mickey Raphael
Piano - Bobbie Nelson
Producer, Arranged By - Willie Nelson
Vocals, Guitar - Willie Nelson
Notes
Includes an inner sleeve with lyrics
Barcode and Other Identifiers
Barcode: 07464334821
Matrix / Runout (Matrix, Side A): AL 33482
Matrix / Runout (Matrix, Side B): BL 33482
Matrix / Runout (Runout, Side A): P <B-MP> AL 33482 G1H
Matrix / Runout (Runout, Side B): (H-MP) P BL-33482 G1H
Источник оцифровки: третьим лицом
Код класса состояния винила: VG+
Устройство воспроизведения: Technics SL1200 Mk2
Головка звукоснимателя: AT-125LC
Предварительный усилитель: Dynaco Pat-5 Bi-Fet
АЦП: E-MU-0404
Программа-оцифровщик: Не указано
Обработка: Не указано
Доп. информация:
foobar2000 1.3.8 / Dynamic Range Meter 1.1.1
log date: 2015-07-11 14:57:02
--------------------------------------------------------------------------------
Analyzed: Willie Nelson / Red Headed Stranger
--------------------------------------------------------------------------------
DR Peak RMS Duration Track
--------------------------------------------------------------------------------
DR12 -3.36 dB -19.28 dB 2:27 01-Time Of The Preacher
DR12 -5.12 dB -20.32 dB 1:33 02-I Couldn't Believe It Was True
DR12 -3.56 dB -20.21 dB 1:13 03-Time Of The Preacher Theme
DR14 -6.23 dB -24.01 dB 1:36 04-Medley: Blue Rock Montana/Red Headed Stranger
DR13 -3.25 dB -20.73 dB 2:22 05-Blue Eyes Crying In The Rain
DR13 -3.29 dB -19.92 dB 4:01 06-Red Headed Stranger
DR13 -5.62 dB -22.70 dB 0:27 07-Time Of The Preacher Theme
DR12 -4.57 dB -21.63 dB 1:47 08-Just As I Am
DR13 -3.25 dB -19.97 dB 0:54 09-Denver
DR12 -7.87 dB -22.40 dB 0:47 10-O'er The Waves
DR12 -4.84 dB -19.59 dB 1:57 11-Down Yonder
DR13 -2.02 dB -20.37 dB 5:25 12-Can I Sleep In Your Arms
DR13 -2.37 dB -18.34 dB 2:53 13-Remember Me
DR14 -1.72 dB -19.65 dB 4:23 14-Hands On The Wheel
DR11 -2.27 dB -21.15 dB 2:16 15-Bandera
--------------------------------------------------------------------------------
Number of tracks: 15
Official DR value: DR13
Samplerate: 96000 Hz
Channels: 2
Bits per sample: 24
Bitrate: 2611 kbps
Codec: FLAC
================================================================================
Не забывайте говорить Спасибо. Не уходите с раздачи!   
Торрент: Зарегистрирован [19 окт 2016, 19:32]
Статус:
Проверен
 
.torrent скачан: 0 раз
Хэш: a4a419ace2a93e752075d4cee6c4b075a9e34e30
Размер: 643.53 МБ (674 785 470 байт)
   Стать Автором раздачи
   
Цитата

Вернуться в Фольклор, народная и этническая музыка (оцифровки)

Кто сейчас на конференции

Сейчас эту тему просматривают: нет зарегистрированных пользователей и гости: 1