(Folk) [7"] [24/96] VA - Частушки Марии Мордасовой - 1966, FLAC (tracks)

 Статистика раздачи 
Размер: 125.73 МБ   |  Зарегистрирован: 21 авг 2016, 05:28   |   .torrent скачан: 0 раз
Сидеров: 0  [ 0 байт/сек ]     Личеров: 0  [ 0 байт/сек ]  
  
Аватара пользователя
Главный редактор
Главный редактор
 
Раздал: 90.01 ТБ
Скачал: 3.78 ТБ
Ратио: 24.248
Сообщения: 274856
Стаж: 9 лет 1 месяц 20 дней
Откуда: Санкт-Петербург

Various Artists
Частушки Марии Мордасовой

Жанр: Folk
Носитель: 7"
Год выпуска: 1966
Лейбл: Мелодия (Д 00018059-60)
Страна-производитель: USSR
Аудио кодек: FLAC
Тип рипа: tracks
Формат записи: 24/96 (dual mono)
Формат раздачи: 24/96 (mono)
Тэги: прописаны
Продолжительность: 00:11:46
Источник оцифровки: автором раздачи
Код класса состояния винила: G(+)
Устройство воспроизведения: Электроника ЭП 017С
Головка звукоснимателя: ГЗМ – 028 (Корвет)
Предварительный усилитель: AMX - 100 (LTO®)
АЦП: Juli@
Программа-оцифровщик: Adobe Audition CS6 5.0.2.
Обработка: реставрация
Треклист:
01. М. Мордасова - Частушки о русских богатырях
02. Группа солисток ГВРНХ - Добрушечки
03. М. Мордасова - Частушки о большой химии
04. В. Сухачёва и К. Горелова - Соперницы

Код: Выделить всё
foobar2000 1.1.3 / Dynamic Range Meter 1.1.1
log date: 2016-08-21 11:05:51
--------------------------------------------------------------------------------
Analyzed: В. Сухачёва и К. Горелова / Частушки Марии Мордасовой (1)
          Группа солисток ГВРНХ / Частушки Марии Мордасовой (2)
          Мария Мордасова / Частушки Марии Мордасовой (3-4)
--------------------------------------------------------------------------------
DR         Peak         RMS     Duration Track
--------------------------------------------------------------------------------
DR12       0.00 dB   -14.09 dB      3:42 ?-Соперницы
DR12       0.00 dB   -13.12 dB      3:25 ?-Добрушечки
DR10       0.00 dB   -11.90 dB      2:29 ?-Частушки о русских богатырях
DR10       0.00 dB   -12.10 dB      2:09 ?-Частушки о большой химии
--------------------------------------------------------------------------------
Number of tracks:  4
Official DR value: DR11
Samplerate:        96000 Hz
Channels:          1
Bits per sample:   24
Bitrate:           1468 kbps
Codec:             FLAC
================================================================================


Не забывайте говорить Спасибо. Не уходите с раздачи!   
Торрент: Зарегистрирован [21 авг 2016, 05:28]
Статус:
Проверен
 
.torrent скачан: 0 раз
Хэш: f84696650adf693b70dad66cf142b39c1b4acc4b
Размер: 125.73 МБ (131 842 136 байт)
   Стать Автором раздачи
   
Цитата

Вернуться в Фольклор, народная и этническая музыка (оцифровки)

Кто сейчас на конференции

Сейчас эту тему просматривают: нет зарегистрированных пользователей и гости: 1