(Folk Rock) [MB] [24/96] Tom Paxton - Morning Again - 1968, FLAC (tracks+.cue)

 Статистика раздачи 
Размер: 700.56 МБ   |  Зарегистрирован: 15 ноя 2016, 23:01   |   .torrent скачан: 0 раз
Сидеров: 0  [ 0 байт/сек ]     Личеров: 0  [ 0 байт/сек ]  
  
Аватара пользователя
Главный редактор
Главный редактор
 
Раздал: 90.01 ТБ
Скачал: 3.78 ТБ
Ратио: 24.248
Сообщения: 274187
Стаж: 9 лет 1 месяц 18 дней
Откуда: Санкт-Петербург

Tom Paxton - Morning Again
Жанр: Folk Rock
Носитель: MB, Reel To Reel 3 & 3/4 ips, Stereo
Год выпуска: 1968
Лейбл: Elektra - EK 4019
Страна-производитель: USA
Аудио кодек: FLAC
Тип рипа: tracks+.cue
Формат записи: 24/96
Формат раздачи: 24/96
Продолжительность: 00:34:27
Треклист:
Side 1 (19:27)
A1 - Jennifers Rabbit
A2 - Mr. Blue
A3 - Victoria Dines Alone
A4 - The Hooker
A5 - So Much For Winning
A6 - Talking Vietnam Pot Luck Blues
Side 2 (15:00)
B1 - Clarissa Jones
B2 - Morning Again
B3 - A Thousand Years
B4 - Now That I’ve Taken My Life
B5 - (Reprise) Jennifers Rabbit
Acoustic Bass [String Bass] - Herbert Brown
Arranged By - Paul Harris (tracks: B4, B5), Robert Sylvester (tracks: A3)
Art Direction - William S. Harvey
Banjo - Jim Tyler
Cello - Robert Sylvester, Seymour Barab
Conductor - Paul Harris (tracks: B4, B5)
Drums - Maurice Baker, Paul Dillon
Electric Bass - John Nagy, Jonathan Raskin
Flute - Hank Freeman
Keyboards - Paul Harris
Mandocello - David Grisman
Producer - Peter K. Siegel
Recording Supervisor [Production Supervisor] - Jac Holzman
Vocals, Guitar - Tom Paxton
Источник оцифровки: третьим лицом
Устройство воспроизведения: Akai GX-4000D Tape Deck
Предварительный усилитель: Heathkit AA-11 Tube
АЦП: Sony PCM-M10
Программа-оцифровщик: Sony PCM-M10
Обработка: Не указано
Доп. информация:
foobar2000 1.3.13 / Dynamic Range Meter 1.1.1
——————————————————————————–
Analyzed: Tom Paxton / Morning Again R2R
——————————————————————————–
DR Peak RMS Duration Track
——————————————————————————–
DR12 -3.13 dB -18.93 dB 1:26 01-Jennifers Rabbit
DR11 -3.14 dB -16.26 dB 2:23 02-Mr. Blue
DR11 -3.05 dB -17.13 dB 2:58 03-Victoria Dines Alone
DR12 -0.97 dB -15.07 dB 3:17 04-The Hooker
DR10 -1.69 dB -15.37 dB 6:41 05-So Much For Winning
DR11 -3.36 dB -18.61 dB 2:46 06-Talking Vietnam Pot Luck Blues
DR10 -0.45 dB -13.61 dB 3:36 07-Clarissa Jones
DR11 -0.53 dB -14.93 dB 3:38 08-Morning Again
DR11 0.00 dB -14.09 dB 3:40 09-A Thousand Years
DR10 0.00 dB -14.57 dB 4:03 10-Now That I’ve Taken My Life
——————————————————————————–
Number of tracks: 10
Official DR value: DR11
Samplerate: 96000 Hz
Channels: 2
Bits per sample: 24
Bitrate: 2816 kbps
Codec: FLAC
================================================================================
Не забывайте говорить Спасибо. Не уходите с раздачи!   
Торрент: Зарегистрирован [15 ноя 2016, 23:01]
Статус:
Проверен
 
.torrent скачан: 0 раз
Хэш: 65bcaea0bb61db48a011dfd683847ba33d4bc7cd
Размер: 700.56 МБ (734 593 934 байт)
   Стать Автором раздачи
   
Цитата

Вернуться в Фольклор, народная и этническая музыка (оцифровки)

Кто сейчас на конференции

Сейчас эту тему просматривают: нет зарегистрированных пользователей и гости: 1