(Folk, Gypsy) [MC] [24/44,1] Группа Штар - Красное платье - 1998, FLAC (image+.cue)

 Статистика раздачи 
Размер: 526.36 МБ   |  Зарегистрирован: 08 авг 2011, 21:39   |   .torrent скачан: 0 раз
Сидеров: 0  [ 0 байт/сек ]     Личеров: 0  [ 0 байт/сек ]  
  
Аватара пользователя
Главный редактор
Главный редактор
 
Раздал: 90.01 ТБ
Скачал: 3.78 ТБ
Ратио: 24.248
Сообщения: 273485
Стаж: 9 лет 1 месяц 10 дней
Откуда: Санкт-Петербург

Группа "Штар" - "Красное платье" (1998)


Жанр: Folk, Gypsy
Носитель: MC
Год выпуска: 1998
Лейбл: Орт - Рекордс , (МС 0009-98)
Страна-производитель: Россия
Аудио кодек: FLAC
Тип рипа: image+.cue
Формат записи: 24/176,4
Формат раздачи: 24/44,1
Продолжительность: 00:43:59
Тэги в .cue: прописаны
Источник оцифровки: автором раздачи
Код класса состояния носителя: VG
Устройство воспроизведения: AKAI GX 95MK2
Магнитная головка: LC-OFC SGX (x2)
Предварительный усилитель: встроенный
АЦП: Juli@
Программа-оцифровщик: Adobe Audition
Обработка: удаление щелчков, восстановление звука, снижение шумов
01. Красное платье (И. Зубков - К. Арсенев)
02. Очи чёрные (музыка и слова народные)
03. Дорогая (музыка и слова М. Иванова)
04. Дорога в никуда (Б. Курчишвили - К. Арсенев)
05. Лунуди (Цветок) (музыка народная, слова М. Иванова)
06. Ипанема (музыка и слова М. Иванова)
07. Испанские мотивы (музыка народная, соло на гитаре М. Иванов)
08. Мато (Песня пьяного цыгана) (музыка и слова народные)
09. Шилалы (Холодная девушка) (музыка и слова народные)
10. Ночной звонок (музыка и слова М. Иванова)
11. Шукарня (Красивая) (музыка и слова народные)

Код: Выделить всё
REM GENRE "Folk, Gypsy"
REM DATE "1998"
REM COMMENT "Cassette, Album, Орт - Рекордс МС 0009-98, Russia"
PERFORMER "''Штар''"
TITLE ""
FILE "01. Строна А.flac" WAVE
  TRACK 01 AUDIO
    TITLE "01. Красное платье"
    INDEX 01 00:00:00
  TRACK 02 AUDIO
    TITLE "02. Очи чёрные"
    INDEX 01 03:26:30
  TRACK 03 AUDIO
    TITLE "03. Дорогая"
    INDEX 01 07:34:70
  TRACK 04 AUDIO
    TITLE "04. Дорога в никуда"
    INDEX 01 11:09:56
  TRACK 05 AUDIO
    TITLE "05. Лунуди"
    INDEX 01 15:53:72
FILE "02. Сторона В.flac" WAVE
  TRACK 06 AUDIO
    TITLE "06. Ипанема"
    INDEX 01 00:00:00
  TRACK 07 AUDIO
    TITLE "07. Испанские мотивы "
    INDEX 01 05:09:11
  TRACK 08 AUDIO
    TITLE "07. Испанские мотивы"
    INDEX 01 07:39:63
  TRACK 09 AUDIO
    TITLE "09. Шилалы"
    INDEX 01 11:48:35
  TRACK 10 AUDIO
    TITLE "10. Ночной звонок"
    INDEX 01 14:31:05
  TRACK 11 AUDIO
    TITLE "11. Шукарня"
    INDEX 01 19:35:28

Не забывайте говорить Спасибо. Не уходите с раздачи!   
Торрент: Зарегистрирован [08 авг 2011, 21:39]
Статус:
Проверен
 
.torrent скачан: 0 раз
Хэш: aee5698114dbb9ae63a4dbb38e0f4fe6fdf268b2
Размер: 526.36 МБ (551 925 083 байт)
   Стать Автором раздачи
   
Цитата

Вернуться в Фольклор, народная и этническая музыка (оцифровки)

Кто сейчас на конференции

Сейчас эту тему просматривают: нет зарегистрированных пользователей и гости: 1