(Acoustic, Folk & Country, Rock) [LP] [24/192] Alan Stivell / A L'Olympia (Canada) - 1972, FLAC (image+.cue)

 Статистика раздачи 
Размер: 1.75 ГБ   |  Зарегистрирован: 08 июл 2015, 00:11   |   .torrent скачан: 0 раз
Сидеров: 0  [ 0 байт/сек ]     Личеров: 0  [ 0 байт/сек ]  
  
Аватара пользователя
Главный редактор
Главный редактор
 
Раздал: 90.01 ТБ
Скачал: 3.78 ТБ
Ратио: 24.248
Сообщения: 274856
Стаж: 9 лет 1 месяц 20 дней
Откуда: Санкт-Петербург

Alan Stivell / A L'Olympia (Canada)
Жанр:Acoustic, Folk & Country, Rock
Носитель:LP
Год выпуска: 1972
Лейбл: Polydor – 2424 068
Страна-производитель:Canada
Аудио кодек: FLAC
Тип рипа: image+.cue
Формат записи: 32/192
Формат раздачи: 24/192
Продолжительность: 00:43:16
Alan Stivell
A1 - The Wind Of Keltia 2:59
A2 - An Dro 2:44
A3 - The Trees They Grow HIgh 2:44
A4 - An Alarc'h 2:26
A5 - An Durzhunel 2:54
A6 - Telenn Gwad 1:51
A7 - The Foggy Dew 1:49
B1 - Pop-Plinn 3:27
B2 - Tha Mi Sgith 4:03
B3 - The King Of The Fairies 2:58
B4 - Tri Martolod 4:11
B5 - Kost Ar C'Hoad 3:00
B6 - Suite Sudarmoricaine 3:14
Источник оцифровки: автором раздачи
Код класса состояния винила: EX
Устройство воспроизведения: Pioneer PL30L
Головка звукоснимателя: Denon DL-301
Предварительный усилитель:NAD PP2IM
АЦП: Xonar STX
Программа-оцифровщик: Adobe Audition CS6
Обработка: BeZZ
NO
Companies etc:
Recorded At – L'Olympia
Credits
Arranged By – Alan Stivell (tracks: A2, A3, A4, A5, A6, A7, B1, B2, B3, B4, B5, B6)
Bass – Gerard Levasseur*
Bombarde, Cello, Flute – Henry Delagarde*
Bombarde, Flute – Mikael Klec'h
Drums – Michel Santangeli
Electric Guitar – Dan Ar Bras*
Engineer – Paul Houdebine
Engineer [Assistant] – Henri Lousteau
Fiddle – Rene Werneer
Guitar, Dulcimer, Banjo – Gabriel Yacoub
Organ – Pascal Stive
Percussion – Serj Parayre
Photography [Recto] – Photo Apis
Photography By [Verso] – Aubert*
Producer – Frank Giboni
Notes:
Live recording in Paris, Olympia - Made in France - Gravure Universelle
Title is "en direct - live" on front cover, "a l'olympia" on back cover, "A L'Olympia" on spine, "A L'Olympia de Paris" on labels.
REM GENRE Acoustic, Folk & Country, Rock
REM DATE 1972
REM atamay_VINYLRIP
REM Polydor – 2424 068, Canada
REM Engineer – Paul Houdebine,[Assistant] – Henri Lousteau
REM Producer – Frank Giboni
PERFORMER "Alan Stivell"
TITLE "En Direct - Live"
FILE "En Direct - Live.flac" WAVE
TRACK 01 AUDIO
TITLE "The Wind Of Keltia"
PERFORMER "Alan Stivell"
INDEX 01 00:00:00
TRACK 02 AUDIO
TITLE "An Dro"
PERFORMER "Alan Stivell"
INDEX 01 03:32:00
TRACK 03 AUDIO
TITLE "The Trees They Grow HIgh"
PERFORMER "Alan Stivell"
INDEX 01 06:33:00
TRACK 04 AUDIO
TITLE "An Alarc'h"
PERFORMER "Alan Stivell"
INDEX 01 09:42:29
TRACK 05 AUDIO
TITLE "An Durzhunel"
PERFORMER "Alan Stivell"
INDEX 01 12:01:47
TRACK 06 AUDIO
TITLE "Telenn Gwad"
PERFORMER "Alan Stivell"
INDEX 01 15:23:34
TRACK 07 AUDIO
TITLE "The Foggy Dew"
PERFORMER "Alan Stivell"
INDEX 01 16:56:51
TRACK 08 AUDIO
TITLE "Pop-Plinn"
PERFORMER "Alan Stivell"
INDEX 01 19:51:59
TRACK 09 AUDIO
TITLE "Tha Mi Sgith"
PERFORMER "Alan Stivell"
INDEX 01 23:30:41
TRACK 010 AUDIO
TITLE "The King Of The Fairies"
PERFORMER "Alan Stivell"
INDEX 01 27:46:71
TRACK 11 AUDIO
TITLE "Tri Martolod"
PERFORMER "Alan Stivell"
INDEX 01 31:02:29
TRACK 12 AUDIO
TITLE "Kost Ar C'Hoad"
PERFORMER "Alan Stivell"
INDEX 01 35:38:02
TRACK 13 AUDIO
TITLE "Suite Sudarmoricaine"
PERFORMER "Alan Stivell"
INDEX 01 39:13:25
Не забывайте говорить Спасибо. Не уходите с раздачи!   
Торрент: Зарегистрирован [08 июл 2015, 00:11]
Статус:
Проверен
 
.torrent скачан: 0 раз
Хэш: 090d52eafba695ae38a4df8a02968c0389e66e93
Размер: 1.75 ГБ (1 875 028 975 байт)
   Стать Автором раздачи
   
Цитата

Вернуться в Фольклор, народная и этническая музыка (оцифровки)

Кто сейчас на конференции

Сейчас эту тему просматривают: нет зарегистрированных пользователей и гости: 1