(Arabic, Instrumental) [MC][16/44.1] Music of Tunisia (instrumental) - 1997, FLAC (tracks+.cue), lossless

 Статистика раздачи 
Размер: 305.97 МБ   |  Зарегистрирован: 05 июн 2011, 19:02   |   .torrent скачан: 0 раз
Сидеров: 0  [ 0 байт/сек ]     Личеров: 0  [ 0 байт/сек ]  
  
Аватара пользователя
Главный редактор
Главный редактор
Я на сайте
 
Раздал: 90.01 ТБ
Скачал: 3.78 ТБ
Ратио: 24.248
Сообщения: 273922
Стаж: 9 лет 1 месяц 15 дней
Откуда: Санкт-Петербург

Music of Tunisia (instrumental)
Жанр: Arabic, Instrumental
Страна-производитель: Tunisia
Год издания: 1997
Страна: Tunisia
Аудиокодек: FLAC (*.flac)
Тип рипа: tracks+.cue
Битрейт аудио: lossless
Продолжительность: 42:04.15
Источник (релизер): Собственная оцифровка с аудиокассеты
Наличие сканов в содержимом раздачи: да
Треклист:
01. Music of Tunisia A-1 [00:04:32]
02. Music of Tunisia A-2 [00:04:51]
03. Music of Tunisia A-3 [00:04:58]
04. Music of Tunisia A-4 [00:05:16]
05. Music of Tunisia B-1 [00:05:47]
06. Music of Tunisia B-2 [00:03:43]
07. Music of Tunisia B-3 [00:06:59]
08. Music of Tunisia B-4 [00:05:55]
Формат записи [Bit/kHz]: 16/44.1
Формат раздачи [Bit/kHz]: 16/44.1
Устройство воспроизведения: Дека - Technics 575
Предварительный усилитель: Встроенный
АЦП: Realtek High Definition Audio (встроенная)
Программа-оцифровщик: Sony Sound Forge 7.0
Обработка: Adobe Audition 1.5 - удаление шипения с исп. сэмп сэмплов (не везде), фэйдинг
Доп. информация:
Оцифровано с оригинальной компакт кассеты
Аудиокассета приобретена в Карфагене в 1997 году. Трэклист с арабского перевести не удалось
Коробки с вкладышем не было сразу при покупке
Код: Выделить всё
REM INFO "CC Rip [16/44.1]" by maestro-ural
REM DATE 1997
PERFORMER "Unknown"
TITLE "Music of Tunisia (instrumental)"
FILE "01.  Arabic (Tunisia) A-1.wav" WAVE
REM FILE-DECODED-SIZE 04:32:02
  TRACK 01 AUDIO
    TITLE " Arabic (Tunisia) A-1"
    PERFORMER "Unknown"
    INDEX 01 00:00:00
FILE "02.  Arabic (Tunisia) A-2.wav" WAVE
REM FILE-DECODED-SIZE 04:51:30
  TRACK 02 AUDIO
    TITLE " Arabic (Tunisia) A-2"
    PERFORMER "Unknown"
    INDEX 01 00:00:00
FILE "03.  Arabic (Tunisia) A-3.wav" WAVE
REM FILE-DECODED-SIZE 04:58:29
  TRACK 03 AUDIO
    TITLE " Arabic (Tunisia) A-3"
    PERFORMER "Unknown"
    INDEX 01 00:00:00
FILE "04.  Arabic (Tunisia) A-4.wav" WAVE
REM FILE-DECODED-SIZE 05:16:58
  TRACK 04 AUDIO
    TITLE " Arabic (Tunisia) A-4"
    PERFORMER "Unknown"
    INDEX 01 00:00:00
FILE "05.  Arabic (Tunisia) B-1.wav" WAVE
REM FILE-DECODED-SIZE 05:47:04
  TRACK 05 AUDIO
    TITLE " Arabic (Tunisia) B-1"
    PERFORMER "Unknown"
    INDEX 01 00:00:00
FILE "06.  Arabic (Tunisia) B-2.wav" WAVE
REM FILE-DECODED-SIZE 03:43:26
  TRACK 06 AUDIO
    TITLE " Arabic (Tunisia) B-2"
    PERFORMER "Unknown"
    INDEX 01 00:00:00
FILE "07.  Arabic (Tunisia) B-3.wav" WAVE
REM FILE-DECODED-SIZE 06:59:30
  TRACK 07 AUDIO
    TITLE " Arabic (Tunisia) B-3"
    PERFORMER "Unknown"
    INDEX 01 00:00:00
FILE "08.  Arabic (Tunisia) B-4.wav" WAVE
REM FILE-DECODED-SIZE 05:55:70
  TRACK 08 AUDIO
    TITLE " Arabic (Tunisia) B-4"
    PERFORMER "Unknown"
    INDEX 01 00:00:00

Не забывайте говорить Спасибо. Не уходите с раздачи!   
Торрент: Зарегистрирован [05 июн 2011, 19:02]
Статус:
Проверен
 
.torrent скачан: 0 раз
Хэш: 6c1fb22b239515ae56a1246b343c6c8dadc68196
Размер: 305.97 МБ (320 830 757 байт)
   Стать Автором раздачи
   
Цитата
  • Похожие торренты
    Ответы
    Просмотры
    Последнее сообщение

Вернуться в Фольклор, народная и этническая музыка (оцифровки)

Кто сейчас на конференции

Сейчас эту тему просматривают: нет зарегистрированных пользователей и гости: 1