(Folk, Traditional) [7"] [16/44,1] Государственный русский народный хор имени Пятницкого - Русские песни - 1960, FLAC (tracks)

 Статистика раздачи 
Размер: 38.23 МБ   |  Зарегистрирован: 02 сен 2016, 07:59   |   .torrent скачан: 0 раз
Сидеров: 0  [ 0 байт/сек ]     Личеров: 0  [ 0 байт/сек ]  
  
Аватара пользователя
Главный редактор
Главный редактор
 
Раздал: 90.01 ТБ
Скачал: 3.78 ТБ
Ратио: 24.248
Сообщения: 273621
Стаж: 9 лет 1 месяц 12 дней
Откуда: Санкт-Петербург

Государственный русский народный хор имени Пятницкого
Русские песни

Жанр: Folk, Traditional
Носитель: 7", 45 RPM, Mono
Год выпуска: 1960
Лейбл: Апрелевский ЗГП (Д - 0006811-12)
Страна-производитель: USSR
Аудио кодек: FLAC
Тип рипа: tracks
Формат записи: 16/44,1
Формат раздачи: 16/44,1 (mono)
Продолжительность: 00:11:01
Тэги: прописаны
Источник оцифровки: Antikata
Код класса состояния винила: VG
Устройство воспроизведения: Simens RW 300
Головка звукоснимателя: AT 71
Предварительный усилитель: Larsen
АЦП: Realteck
Программа-оцифровщик: Audacity
Обработка: реставрация iZotope RX 5 (samopal records)
Треклист:

01. Уж я золото хороню
02. По улице Мостовой
03. Будьте здоровы
04. Вдоль по речке

Код: Выделить всё
foobar2000 1.1.3 / Dynamic Range Meter 1.1.1
log date: 2016-09-02 13:44:56
--------------------------------------------------------------------------------
Analyzed: Государственный русский народный хор имени Пятницкого / Русские песни
--------------------------------------------------------------------------------
DR         Peak         RMS     Duration Track
--------------------------------------------------------------------------------
DR12       0.00 dB   -15.25 dB      2:54 ?-Уж я золото хороню
DR11       0.00 dB   -13.13 dB      2:05 ?-По улице Мостовой
DR11       0.00 dB   -13.99 dB      2:50 ?-Будьте здоровы
DR12       0.00 dB   -13.61 dB      3:12 ?-Вдоль по речке
--------------------------------------------------------------------------------
Number of tracks:  4
Official DR value: DR12
Samplerate:        44100 Hz
Channels:          1
Bits per sample:   16
Bitrate:           444 kbps
Codec:             FLAC
================================================================================
Не забывайте говорить Спасибо. Не уходите с раздачи!   
Торрент: Зарегистрирован [02 сен 2016, 07:59]
Статус:
Проверен
 
.torrent скачан: 0 раз
Хэш: a6f802cb2b9aa745b4bc0c5f65f0763ceb35f855
Размер: 38.23 МБ (40 082 516 байт)
   Стать Автором раздачи
   
Цитата
  • Похожие торренты
    Ответы
    Просмотры
    Последнее сообщение

Вернуться в Фольклор, народная и этническая музыка (оцифровки)

Кто сейчас на конференции

Сейчас эту тему просматривают: нет зарегистрированных пользователей и гости: 1