(Ethnic/Serbian Folk) [LP] [16/44.1]VA - Solunske Pesme - 1979, FLAC (image+.cue)

 Статистика раздачи 
Размер: 140.1 МБ   |  Зарегистрирован: 12 фев 2014, 15:04   |   .torrent скачан: 0 раз
Сидеров: 0  [ 0 байт/сек ]     Личеров: 0  [ 0 байт/сек ]  
  
Аватара пользователя
Главный редактор
Главный редактор
 
Раздал: 90.01 ТБ
Скачал: 3.78 ТБ
Ратио: 24.248
Сообщения: 273485
Стаж: 9 лет 1 месяц 11 дней
Откуда: Санкт-Петербург

Various Artists - Solunske Pesme
Жанр: Ethnic/Serbian Folk
Носитель: LP
Год выпуска: 1979
Лейбл: Jugoton
Страна-производитель: Yugoslavia
Аудио кодек: FLAC
Тип рипа: image+.cue
Формат записи: 32/44.1
Формат раздачи: 16/44.1
Продолжительность: 27'38
Треклист:
A1 Orkestar "Romansa" – Solunsko Kolo
A2 Slobodan Mulina, Sekstet "Skadarlija" I Orkestar "Romansa" – Kapetan Koča Putuje
A3 Dušan Jakšić* I Orkestar "Romansa" – Tamo Daleko
A4 Sekstet "Skadarlija" I Orkestar "Romansa" – Kreće Se Lađa Francuska
A5 Ansambl Urošević* – Marš Na Drinu
B1 Gordana Runjajić, Mile Bogdanović I Orkestar "Romansa" – Mladi Kapetan
B2 Sekstet "Skadarlija" I Orkestar "Romansa" – Rado Ide Srbin U Vojnike
B3 Slavko Perović, Sekstet "Skadarlija" I Narodni Orkestar Miodraga Jašarevića* – Pesma Čežnje
B4 Olivera Marković I Orkestar "Romansa" – Gledam Bajnu Zoru
B5 Orkestar "Romansa" – Nizamski Rastanak
Arranged By – Žarko Petrović (tracks: A1, A2, A4 to B5)
Conductor – Žarko Petrović (tracks: A1 to A4, B1, B2, B4, B5)
Источник оцифровки: автором раздачи
Код класса состояния винила: G
Головка звукоснимателя: Envivo USB Turntable
Предварительный усилитель: build in
АЦП: Realtek HD Audio
Программа-оцифровщик: Audacity
Обработка: recorded, split, tagged and converted
TITLE "Solunsko Kolo"
FILE "Various Artists - Solunsko Kolo.flac" WAVE
TRACK 01 AUDIO
TITLE "Solunsko Kolo"
PERFORMER "Orkestar Romanska"
INDEX 01 00:00:00
TRACK 02 AUDIO
TITLE "Kapetan Koca Putuje"
PERFORMER "Slobodan Mulina"
INDEX 01 01:50:40
TRACK 03 AUDIO
TITLE "Tamo Daleko"
PERFORMER "Dusan Jaksic"
INDEX 01 03:51:46
TRACK 04 AUDIO
TITLE "Krece Se Lada Francuska"
PERFORMER "Sekstet Skadarlijja"
INDEX 01 06:40:41
TRACK 05 AUDIO
TITLE "Mars Na Drinu"
PERFORMER "Ansambi Urosevic"
INDEX 01 10:55:45
TRACK 06 AUDIO
TITLE "Mladi Kapetan"
PERFORMER "Gordana Runjajic i Mile Bogdanovic"
INDEX 01 14:02:73
TRACK 07 AUDIO
TITLE "Rado Ide Srbin U Vojnike"
PERFORMER "Sekstet Skadarlijja"
INDEX 01 16:41:28
TRACK 08 AUDIO
TITLE "Pesma Ceznje"
PERFORMER "Slavko Perovic"
INDEX 01 18:28:27
TRACK 09 AUDIO
TITLE "Gledam Bajnu Zoru"
PERFORMER "Olivera Markovic"
INDEX 01 21:57:41
TRACK 10 AUDIO
TITLE "Nizamski Rastanak"
PERFORMER "Orkestar Romanska"
INDEX 01 24:00:67
Не забывайте говорить Спасибо. Не уходите с раздачи!   
Торрент: Зарегистрирован [12 фев 2014, 15:04]
Статус:
Проверен
 
.torrent скачан: 0 раз
Хэш: c7d0a97807014f220affc46c1a6404a9ba0a8115
Размер: 140.1 МБ (146 907 557 байт)
   Стать Автором раздачи
   
Цитата

Вернуться в Фольклор, народная и этническая музыка (оцифровки)

Кто сейчас на конференции

Сейчас эту тему просматривают: нет зарегистрированных пользователей и гости: 1