(Folk, World, & Country) [7"] [Mono] [24/96] Мения Мартинес - Кубинские и испанские народные песни/M. Martinez – Cuban And Spanish Folk Songs - 1959, FLAC (image+.cue)

 Статистика раздачи 
Размер: 197.97 МБ   |  Зарегистрирован: 23 май 2018, 05:43   |   .torrent скачан: 0 раз
Сидеров: 0  [ 0 байт/сек ]     Личеров: 0  [ 0 байт/сек ]  
  
Аватара пользователя
Главный редактор
Главный редактор
 
Раздал: 90.01 ТБ
Скачал: 3.78 ТБ
Ратио: 24.248
Сообщения: 274856
Стаж: 9 лет 1 месяц 20 дней
Откуда: Санкт-Петербург

Концерт Мении Мартинес (Куба)
Кубинские и испанские народные песни
(1959)

Жанр: Folk, World, & Country
Носитель: 8"
Год выпуска: 1959
Лейбл: Ташкентский Завод (Д - 005188-89)
Страна-производитель: USSR
Аудио кодек: FLAC
Тип рипа: image+.cue
Формат записи: 24/192
Формат раздачи: 24/96 (mono)
Продолжительность: 00:17:47
Тэги в .cue: прописаны
Источник оцифровки: автором раздачи
Код класса состояния винила: G
Устройство воспроизведения: Электроника ЭП 017С
Головка звукоснимателя: ГЗМ – 028 (Корвет)
Предварительный усилитель: AMX - 100 (LTO®)
АЦП: Juli@
Программа-оцифровщик: Adobe Audition CS6 5.0.2.
Обработка: реставрация
Треклист:

A1 Андалузия / Andalucia (Spanish Folk Song)
A2 Веселись, Негритянка / Make Merry, Negro Woman (Cuban Folk Song)
A3 Сомбреро / Sombrero (Spanish Folk Song)
B1 Меленко / Melenko (Cuban Folk Song)
B2 Ночной Сторож / Night Watchman (Spanish Folk Song)
B3 Элеква / Elekva (Cuban Folk Song)
B4 Танцуй, Кубинка / Dance, Cuban Girl (Cuban Folk Song)

Код: Выделить всё
foobar2000 1.1.3 / Dynamic Range Meter 1.1.1
log date: 2018-05-23 11:14:19
--------------------------------------------------------------------------------
Analyzed: Мения Мартинес / Концерт. Кубинские и испанские народные песни
--------------------------------------------------------------------------------
DR         Peak         RMS     Duration Track
--------------------------------------------------------------------------------
DR11      -1.41 dB   -15.97 dB      2:05 ?-A1 Андалузия / Andalucia
DR11      -0.10 dB   -12.92 dB      2:59 ?-A2 Веселись, Негритянка
DR10      -0.47 dB   -13.70 dB      3:44 ?-A3 Сомбреро / Sombrero (Spanish Folk Song)
DR10      -0.47 dB   -12.46 dB      2:25 ?-B1 Меленко / Melenko (Cuban Folk Song)
DR11      -0.53 dB   -13.96 dB      1:39 ?-B2 Ночной Сторож / Night Watchman (Spanish Folk Song)
DR10      -0.58 dB   -13.45 dB      2:52 ?-B3 Элеква / Elekva (Cuban Folk Song)
DR10      -0.10 dB   -12.06 dB      2:02 ?-B4 Танцуй, Кубинка / Dance, Cuban Girl (Cuban Folk Song)
--------------------------------------------------------------------------------
Number of tracks:  7
Official DR value: DR10
Samplerate:        96000 Hz
Channels:          1
Bits per sample:   24
Bitrate:           1507 kbps
Codec:             FLAC
================================================================================
Код: Выделить всё
REM GENRE "Folk, World, & Country"
REM DATE "1959"
REM COMMENT "Vinyl, 8", 33 RPM, Mono, Ташкентский Завод, Д - 005188, USSR"
PERFORMER "Мения Мартинес"
TITLE "Концерт. Кубинские и испанские народные песни"
FILE "01. Сторона 1.flac" WAVE
  TRACK 01 AUDIO
    TITLE "A1 Андалузия / Andalucia"
    INDEX 01 00:00:00
  TRACK 02 AUDIO
    TITLE "A2 Веселись, Негритянка"
    INDEX 01 02:04:73
  TRACK 03 AUDIO
    TITLE "A3 Сомбреро / Sombrero (Spanish Folk Song)"
    INDEX 01 05:04:16
FILE "02. Сторона 2.flac" WAVE
  TRACK 04 AUDIO
    TITLE "B1 Меленко / Melenko (Cuban Folk Song)"
    INDEX 01 00:00:00
  TRACK 05 AUDIO
    TITLE "B2 Ночной Сторож / Night Watchman (Spanish Folk Song)"
    INDEX 01 02:25:27
  TRACK 06 AUDIO
    TITLE "B3 Элеква / Elekva (Cuban Folk Song)"
    INDEX 01 04:04:38
  TRACK 07 AUDIO
    TITLE "B4 Танцуй, Кубинка / Dance, Cuban Girl (Cuban Folk Song)"
    INDEX 01 06:56:30


Не забывайте говорить Спасибо. Не уходите с раздачи!   
Торрент: Зарегистрирован [23 май 2018, 05:43]
Статус:
Проверен
 
.torrent скачан: 0 раз
Хэш: df2ad13027efb0d6c1bec8785dfbd74120858eba
Размер: 197.97 МБ (207 587 442 байт)
   Стать Автором раздачи
   
Цитата

Вернуться в Фольклор, народная и этническая музыка (оцифровки)

Кто сейчас на конференции

Сейчас эту тему просматривают: нет зарегистрированных пользователей и гости: 1