(Folk, World, & Country) [MC] [24/48] VA – All The Best From Scotland - 1997, FLAC (image+.cue)

 Статистика раздачи 
Размер: 1.11 ГБ   |  Зарегистрирован: 30 сен 2018, 04:45   |   .torrent скачан: 0 раз
Сидеров: 0  [ 0 байт/сек ]     Личеров: 0  [ 0 байт/сек ]  
  
Аватара пользователя
Главный редактор
Главный редактор
Я на сайте
 
Раздал: 90.01 ТБ
Скачал: 3.78 ТБ
Ратио: 24.248
Сообщения: 273585
Стаж: 9 лет 1 месяц 11 дней
Откуда: Санкт-Петербург

Various Artists
All The Best From Scotland
(1997)
Жанр: Folk, World, & Country
Носитель: MC
Год выпуска: 1997
Лейбл: Healing Sounds - 351
Страна-производитель: Russia
Аудио кодек: FLAC
Тип рипа: image+.cue
Формат записи: 24/96
Формат раздачи: 24/48
Продолжительность: 01:32:06
Тэги в .cue: прописаны
Источник оцифровки: автором раздачи
Код класса состояния магнитоленты: VG
Устройство воспроизведения: AKAI GX 95MK2
Магнитная головка: LC-OFC SGX (x2)
Предварительный усилитель: встроенный
АЦП: Juli@
Программа-оцифровщик: Adobe Audition CS6 5.0.2.
Обработка: удаление артефактов, частичная реставрация
Side A
A1 The Pipes & Drums & Military Of The King's Own Scottish Borderers - Amazing Grace
A2 The Alex Sutherland Band And Singers - Flower Of Scotland
A3 The John Ellis Highland Country Band - Caledonian Corn
A4 Alastair MacDonald - Melville Castle
A5 Walter Perrie - The Jacqueline Waltz
A6 Sydney Devine - The Road To Dundee
A7 Jimmy Shand Jr & His Band - Folk Song Two Step
A8 Andy Stewart - Mull Of Kintyre
A9 Arthur Spink Maggie - The Old Rugged Cross
A10 City Of Glasgow Police Pipe Band - Polkas - The Royal Scot's Polka
A11 The Alex Sutherland Band & Singers - Westering Home
A12 The Pipes & Drums Of The King's Own Scottish Borderers - Scotch On The Rocks
A13 A. MacDonald - Glencoe
A14 Andrew Rankine & His Scottish Band - The Bluebell Polka
Side B
B1 Arthur Spink - Set of Reels
B2 MacDonald Sisters - Johnny Cope
B3 Bobby MacLeod - An Eriskay Love Lilt
B4 Cambrai Staff Band & Pipes & Drums Of The Royal Tank Regiment - Morning Has Broken
B5 Andy M. Stewart - Harry Lauder Medley
Bonus Tracks:
B6 The Pipes Of Scotland 1
B7 The Pipes Of Scotland 2
B8 The Pipes Of Scotland 3
B9 The Pipes Of Scotland 3
B10 The Pipes Of Scotland 5
B11 The Pipes Of Scotland 6
B12 The Pipes Of Scotland 7
B13 The Pipes Of Scotland 8
Код: Выделить всё
foobar2000 1.1.3 / Dynamic Range Meter 1.1.1
log date: 2018-09-30 10:22:22
--------------------------------------------------------------------------------
Analyzed: Various / All The Best From Scotland
--------------------------------------------------------------------------------
DR         Peak         RMS     Duration Track
--------------------------------------------------------------------------------
DR12      -0.10 dB   -14.79 dB     44:16 ?-01. Side A
DR11      -0.10 dB   -13.93 dB     47:50 ?-02. Side B
--------------------------------------------------------------------------------
Number of tracks:  2
Official DR value: DR12
Samplerate:        48000 Hz
Channels:          2
Bits per sample:   24
Bitrate:           1676 kbps
Codec:             FLAC
================================================================================
Код: Выделить всё
REM GENRE "Folk, World, & Country"
REM DATE "1997"
REM COMMENT "MC, Compilation, Healing Sounds - 351, Russia"
PERFORMER "Various Artists"
TITLE "All The Best From Scotland"
FILE "01. Side A.flac" WAVE
  TRACK 01 AUDIO
    TITLE "A1 Amazing Grace"
    PERFORMER "The Pipes & Drums & Military Of The King's Own Scottish Borderers"
    INDEX 01 00:00:00
  TRACK 02 AUDIO
    TITLE "A2 Flower Of Scotland"
    PERFORMER "The Alex Sutherland Band And Singers"
    INDEX 01 03:37:09
  TRACK 03 AUDIO
    TITLE "A3 Caledonian Corn"
    PERFORMER "The John Ellis Highland Country Band"
    INDEX 01 06:49:01
  TRACK 04 AUDIO
    TITLE "A4 Melville Castle"
    PERFORMER "Alastair MacDonald"
    INDEX 01 09:20:58
  TRACK 05 AUDIO
    TITLE "A5 The Jacqueline Waltz"
    PERFORMER "Walter Perrie"
    INDEX 01 12:12:65
  TRACK 06 AUDIO
    TITLE "A6 The Road To Dundee"
    PERFORMER "Sydney Devine"
    INDEX 01 14:27:57
  TRACK 07 AUDIO
    TITLE "A7 Folk Song Two Step"
    PERFORMER "Jimmy Shand Jr & His Band"
    INDEX 01 17:33:35
  TRACK 08 AUDIO
    TITLE "A8 Mull Of Kintyre"
    PERFORMER "Andy Stewart"
    INDEX 01 19:50:70
  TRACK 09 AUDIO
    TITLE "A9 The Old Rugged Cross"
    PERFORMER "Arthur SpinkMaggie"
    INDEX 01 22:35:21
  TRACK 10 AUDIO
    TITLE "A10 The Royal Scot's Polka"
    PERFORMER "City Of Glasgow Police Pipe Band - Polkas"
    INDEX 01 26:51:22
  TRACK 11 AUDIO
    TITLE "A11 Westering Home"
    PERFORMER "The Alex Sutherland Band & Singers"
    INDEX 01 29:50:23
  TRACK 12 AUDIO
    TITLE "A12 Scotch On The Rocks"
    PERFORMER "The Pipes & Drums Of The King's Own Scottish Borderers"
    INDEX 01 34:34:65
  TRACK 13 AUDIO
    TITLE "A13 Glencoe"
    PERFORMER "A. MacDonald"
    INDEX 01 37:30:65
  TRACK 14 AUDIO
    TITLE "A14 The Bluebell Polka"
    PERFORMER "Andrew Rankine & His Scottish Band"
    INDEX 01 41:39:24
FILE "02. Side B.flac" WAVE
  TRACK 15 AUDIO
    TITLE "B1 Set of Reels"
    PERFORMER "Arthur Spink"
    INDEX 01 00:00:00
  TRACK 16 AUDIO
    TITLE "B2 Johnny Cope"
    PERFORMER "MacDonald Sisters"
    INDEX 01 03:28:64
  TRACK 17 AUDIO
    TITLE "B3 An Eriskay Love Lilt"
    PERFORMER "Bobby MacLeod"
    INDEX 01 05:46:20
  TRACK 18 AUDIO
    TITLE "B4 Morning Has Broken"
    PERFORMER "Cambrai Staff Band & Pipes & Drums Of The Royal Tank Regiment"
    INDEX 01 08:42:32
  TRACK 19 AUDIO
    TITLE "B5 Harry Lauder Medley"
    PERFORMER "Andy M. Stewart"
    INDEX 01 11:39:27
  TRACK 20 AUDIO
    TITLE "B6 Bonus Track 1"
    PERFORMER "The Pipes Of Scotland"
    INDEX 01 14:49:57
  TRACK 21 AUDIO
    TITLE "B7 Bonus track 2"
    PERFORMER "The Pipes Of Scotland"
    INDEX 01 17:58:56
  TRACK 22 AUDIO
    TITLE "B8 Bonus track 3"
    PERFORMER "The Pipes Of Scotland"
    INDEX 01 22:53:41
  TRACK 23 AUDIO
    TITLE "B9 Bonus track 4"
    PERFORMER "The Pipes Of Scotland"
    INDEX 01 24:43:23
  TRACK 24 AUDIO
    TITLE "B10 Bonus track 5"
    PERFORMER "The Pipes Of Scotland"
    INDEX 01 32:04:73
  TRACK 25 AUDIO
    TITLE "B11 Bonus track 6"
    PERFORMER "The Pipes Of Scotland"
    INDEX 01 35:13:54
  TRACK 26 AUDIO
    TITLE "B12 Bonus track 7"
    PERFORMER "The Pipes Of Scotland"
    INDEX 01 40:39:22
  TRACK 27 AUDIO
    TITLE "B13 Bonus track 8"
    PERFORMER "The Pipes Of Scotland"
    INDEX 01 43:48:39


Не забывайте говорить Спасибо. Не уходите с раздачи!   
Торрент: Зарегистрирован [30 сен 2018, 04:45]
Статус:
Проверен
 
.torrent скачан: 0 раз
Хэш: 5139b3e8de02c6bf6d1fdb13a75fd7aa52fe67fd
Размер: 1.11 ГБ (1 186 832 995 байт)
   Стать Автором раздачи
   
Цитата

Вернуться в Фольклор, народная и этническая музыка (оцифровки)

Кто сейчас на конференции

Сейчас эту тему просматривают: нет зарегистрированных пользователей и гости: 1