(Renaissance, Folk) [6LP] [24/96] John Renbourn & The John Renbourn Group - 5 Albums - 1970-1985, FLAC (tracks+.cue)

 Статистика раздачи 
Размер: 4.34 ГБ   |  Зарегистрирован: 09 мар 2018, 09:27   |   .torrent скачан: 0 раз
Сидеров: 0  [ 0 байт/сек ]     Личеров: 0  [ 0 байт/сек ]  
  
Аватара пользователя
Главный редактор
Главный редактор
Я на сайте
 
Раздал: 90.01 ТБ
Скачал: 3.78 ТБ
Ратио: 24.248
Сообщения: 273922
Стаж: 9 лет 1 месяц 15 дней
Откуда: Санкт-Петербург

John Renbourn & The John Renbourn Group - 5 Albums
Жанр: Renaissance, Folk
Носитель: 6LP
Год выпуска: 1970 (1986), 1976, 1977, 1982, 1985 (1986)
Страна-производитель: US, SP
Аудио кодек: FLAC
Тип рипа: tracks+.cue
Формат записи: 24/96
Формат раздачи: 24/96
Продолжительность: 3:39:23
Источник оцифровки: LP Rip & Full Scan LP Cover: Fran Solo
#77Лейбл: Lost Lake Arts/LL-0087
Страна-производитель: US
Код класса состояния винила: NM-
Продолжительность: 35:15
Треклист:
A1.a Trotto
A1.b Saltarello
A2.a Lamento Di Tristan
A2.b La Rotta
A3.a Veri Floris
A3.b Triple Ballade
A4.a Bransle Gay
A4.b Bransle De Bourgogne
A5.a Alman
A5.b Melancholy Galliard
A6 Sarabande
B1 The Lady And The Unicorn
B2.a My Johnny Was A Shoemaker
B2.b Western Wynde
B2.c Scarborough Fair
Устройство воспроизведения: Technics SL-1200MK2 Quartz
Головка звукоснимателя: SHURE M97xE With JICO SAS Stylus
Предварительный усилитель: Marantz 2252
АЦП: E-MU 0404
----------------------------------------------------------------------------------------------
Analyzed folder: /John Renbourn ‎- The Lady And The Unicorn (LP)
----------------------------------------------------------------------------------------------
DR Peak RMS Filename
----------------------------------------------------------------------------------------------
DR11 -4.21 dB -17.24 dB 01 John Renbourn - LADO 1- Trotto.wav
DR14 -1.81 dB -19.57 dB 02 John Renbourn - Saltarello.wav
DR14 -2.57 dB -19.05 dB 03 John Renbourn - Lamento Di Tristan.wav
DR12 -3.11 dB -17.89 dB 04 John Renbourn - La Rotta.wav
DR11 -5.70 dB -18.28 dB 05 John Renbourn - Veri Floris.wav
DR13 -5.78 dB -22.03 dB 06 John Renbourn - Triple Ballade.wav
DR12 -4.89 dB -18.08 dB 07 John Renbourn - Bransle Gay.wav
DR11 -3.01 dB -17.42 dB 08 John Renbourn - Bransle De Bourgogne.wav
DR11 -2.85 dB -17.15 dB 09 John Renbourn - Alman.wav
DR14 -4.90 dB -21.16 dB 10 John Renbourn - Melancholy Galliard.wav
DR13 -2.99 dB -19.83 dB 11 John Renbourn - Sarabande.wav
DR13 -2.19 dB -18.05 dB 12 John Renbourn - LADO 2- The Lady And The Unicorn.wav
DR12 -0.41 dB -15.74 dB 13 John Renbourn - My Johnny Was A Shoemaker.wav
DR14 -7.20 dB -26.46 dB 14 John Renbourn - Western Wynde.wav
DR12 -0.69 dB -15.96 dB 15 John Renbourn - Scarborough Fair.wav
----------------------------------------------------------------------------------------------
Number of files: 15
Official DR value: DR13
==============================================================================================
Adapted By – Renbourn (tracks: A1 to A3.a, A5.a)
Arranged By – Renbourn (tracks: A3.b, A4, B2)
Composed By – Anonymous (tracks: A1 to A3.a, A5.a)
Concertina – Lea Nicholson (tracks: A5)
Flute – Ray Warleigh (tracks: A3, A4.b), Tony Roberts (tracks: B2.a, B2.c)
Guitar, Liner Notes – John Renbourn
Producer – Bill Leader
Viola – Don Harper (2) (tracks: B2.a, B2.c)
Violin – Dave Swarbrick (tracks: A3, A4.b)
Written By – Traditional (tracks: B2)
Renbourn's last solo album for the next six years overlaps with his Pentangle work, featuring Terry Cox playing hand drums and glockenspiel, with future John Renbourn band member Tony Roberts and violinist Dave Swarbrick.
The repertory consists of medieval and early classical pieces, interspersed with the expected folk material – keyboard works from the Fitzwilliam virginal book (transcribed for guitar) stand alongside traditional tunes such as "Scarborough Fair," which turns up as part of an 11-minute track that also incorporates "My Johnny Was a Shoemaker," with Swarbrick at the top of his form on violin. The album is entirely instrumental, but as with other Renbourn releases, one hardly misses the vocals.
Review by Bruce Eder, allmusic.com
#7#77#77
#77Лейбл: Transatlantic - TRA 336
Страна-производитель: US
Код класса состояния винила: не известно
Продолжительность: 39:33
Треклист:
A1 The Hermit
A2 John's Tune
A3 Little Alice
A4 Old Mac Bladgitt
A5 Faro's Rag
A6 Caroline's Tune
B1 Three Pieces By O' Carolan
a The Lamentation Of Owen Roe O' Neill
b Lord Inchiquin
c Mrs. Power (O' Carolan's Concerto)
B2 The Princess And The Puddings
B3 Bycicle Tune*
B3 Pavanna (Anna Bannana)
B4a A Toye
B4b Lord Willoughby's Welcome Home
* Only in US version.
Источник оцифровки: LP Rip & Full Scan LP Cover: Fran Solo
Устройство воспроизведения: Marantz 6170
Головка звукоснимателя: SHURE M97xE
Предварительный усилитель: Sansui 9090DB
АЦП: E-MU 0404
----------------------------------------------------------------------------------------------
Analyzed folder: /John Renbourn - The Hermit (LP)
----------------------------------------------------------------------------------------------
DR Peak RMS Filename
----------------------------------------------------------------------------------------------
DR12 -1.03 dB -15.41 dB 01 John Renbourn - LADO 1- The Hermit.wav
DR13 -0.22 dB -15.29 dB 02 John Renbourn - John's Tune.wav
DR11 -1.07 dB -14.93 dB 03 John Renbourn - Goat Island.wav
DR12 -0.79 dB -16.45 dB 04 John Renbourn - Old Mac Bladgitt.wav
DR10 -1.57 dB -13.90 dB 05 John Renbourn - Faro's Rag.wav
DR11 -1.60 dB -15.26 dB 06 John Renbourn - Caroline's Tune.wav
DR12 -1.14 dB -15.62 dB 07 John Renbourn - LADO 2- Three Pieces By O'Carolan.wav
DR10 -1.12 dB -15.27 dB 08 John Renbourn - The Princess And The Puddings.wav
DR13 -0.03 dB -15.37 dB 09 John Renbourn - Bicycle Tune.wav
DR12 -0.00 dB -14.64 dB 10 John Renbourn - Pavanna (Anna Bannana).wav
DR12 -0.58 dB -15.23 dB 11 John Renbourn - a) A Toye.wav
DR11 -0.31 dB -14.09 dB 12 John Renbourn - b) Lord Willoughby's Welcome Home.wav
----------------------------------------------------------------------------------------------
Number of files: 12
Official DR value: DR12
==============================================================================================
John Renbourn: Acoustic guitar
John James: Acoustic guitar
Dominique Trepeau: Acoustic guitar
John Renbourn's first post-Pentangle (or nearly post-Pentangle) solo album, joined briefly by fellow guitarist Dominique Trepeau and featuring further contributions by John James, is one of his most beautiful recordings, and also among his most spare guitar instrumentals. Some of the material is drawn from lute and harp sources, and it is ear-opening to hear some of the more familiar pieces among the latter (such as "O'Carolan's Concerto") transcribed for guitar, but Renbourn isn't above adapting themes from television commercials, either. The mood of much – though not all – of Hermit is one of serious introspection, as Renbourn stays generally within a classical guitar mode. He has fun with the material, and the CD booklet also includes musical transcriptions of some of the tunes on the record, for the benefit of Renbourn's fellow guitarists.
allmusic.com
#7#77#77
#77Лейбл: Shanachie/79004
Страна-производитель: US
Продолжительность: 36:59
Код класса состояния винила: NM-
Треклист:
A1 Blackwaterside
A2 Nacht Tanz/Shaeffertanz
A3 A Maid In Bedlam
A4 Gypsy Dance/Jews Dance
A5 John Barleycorn
B1 Reynardine
B2 My Johnny Was A Shoemaker
B3 Death And The Lady
B4 The Battle Of Augrham/5 In A Line
B5 Talk About Suffering
Устройство воспроизведения: Marantz 6170
Головка звукоснимателя: SHURE M97xE With JICO SAS Stylus
Предварительный усилитель: Marantz 2252
АЦП: E-MU 0404
----------------------------------------------------------------------------------------------
Analyzed folder: /The John Renbourn Group ‎- A Maid In Bedlam (LP)
----------------------------------------------------------------------------------------------
DR Peak RMS Filename
----------------------------------------------------------------------------------------------
DR12 -1.89 dB -15.87 dB 01 The John Renbourn Group - LADO 1- Black Waterside.wav
DR13 -0.86 dB -15.85 dB 02 The John Renbourn Group - Nacht Tanz - Shaeffertanz.wav
DR14 -0.29 dB -15.62 dB 03 The John Renbourn Group - A Maid In Bedlam.wav
DR14 -1.77 dB -17.78 dB 04 The John Renbourn Group - Gypsy Dance - Jews Dance.wav
DR14 -0.55 dB -16.93 dB 05 The John Renbourn Group - John Barleycorn.wav
DR13 -1.60 dB -16.77 dB 06 The John Renbourn Group - LADO 2- Reynardine.wav
DR12 -4.36 dB -18.28 dB 07 The John Renbourn Group - My Johnny Was Shoemaker.wav
DR13 -1.28 dB -17.19 dB 08 The John Renbourn Group - Death And The Lady.wav
DR13 -0.62 dB -15.81 dB 09 The John Renbourn Group - The Battle Of Augrham-5 in a Line.wav
DR14 -0.12 dB -16.43 dB 10 The John Renbourn Group - Talk About Suffering.wav
----------------------------------------------------------------------------------------------
Number of files: 10
Official DR value: DR13
==============================================================================================
Fiddle, Vocals – Sue Draheim
Guitar [Guitars], Vocals – John Renbourn
Tabla, Finger Cymbals – Keshav Sathe
Vocals – Jacqui McShee
Vocals, Flute, Recorder [Recorders], Oboe, Piccolo Flute – Tony Roberts
#7#77#77
#77Лейбл: Flying Fish/FC 27103
Страна-производитель: US
Код класса состояния винила: NM
Продолжительность: 34:53
Треклист:
A1 Lindsay
A2 Ye Mariners All
A3 English Dance
A4 The Cruel Mother
A5 Breton Dances
B1 The Trees They Grow High
B2 Farewell Nancy
B3 Van Dieman’s Land
B4 High Germany
36:06.
C1 Sidi Brahim
C2 The Month Of May Is Past / Night Orgies
D1 John Dory
D2 So Early In The Spring
D3 Fair Flower
D4 John Barleycorn Is Dead
34:53
Устройство воспроизведения: Technics SL-1200MK2 Quartz
Головка звукоснимателя: SHURE M97xE With JICO SAS Stylus
Предварительный усилитель: Marantz 2252
АЦП: E-MU 0404



----------------------------------------------------------------------------------------------
Analyzed folder: /The John Renbourn Group - Live In America (LP 1)
----------------------------------------------------------------------------------------------
DR Peak RMS Filename
----------------------------------------------------------------------------------------------
DR14 -0.12 dB -17.41 dB 01 The John Renbourn Group - LADO 1- Lindsay.wav
DR12 -3.55 dB -19.01 dB 02 The John Renbourn Group - Ye Mariners All.wav
DR14 -4.94 dB -20.18 dB 03 The John Renbourn Group - English Dance.wav
DR14 -2.40 dB -22.91 dB 04 The John Renbourn Group - The Cruel Mother.wav
DR13 -4.21 dB -20.78 dB 05 The John Renbourn Group - Breton Dances.wav
DR13 -1.69 dB -17.99 dB 06 The John Renbourn Group - LADO 2- The Trees They Grow High.wav
DR17 -2.56 dB -23.72 dB 07 The John Renbourn Group - Farewell Nancy.wav
DR15 -0.65 dB -18.87 dB 08 The John Renbourn Group - Van Dieman's Land.wav
DR12 -4.99 dB -21.54 dB 09 The John Renbourn Group - High Germany.wav
----------------------------------------------------------------------------------------------
Number of files: 9
Official DR value: DR14
==============================================================================================
++++++++++++++++++++++++++++++++++++++++++++++++++++++++++++++++++++++++++++++++++++++++++++++
----------------------------------------------------------------------------------------------
Analyzed folder: /The John Renbourn Group - Live In America (LP 2)
----------------------------------------------------------------------------------------------
DR Peak RMS Filename
----------------------------------------------------------------------------------------------
DR17 -1.17 dB -21.54 dB 01 The John Renbourn Group - LADO 3- Sidi Brahim.wav
DR16 -1.74 dB -23.21 dB 02 The John Renbourn Group - The Month Of May Is Past - Night Orgies.wav
DR13 -2.24 dB -18.42 dB 03 The John Renbourn Group - LADO 4- John Dory.wav
DR16 -1.19 dB -20.04 dB 04 The John Renbourn Group - So Early In The Spring.wav
DR10 -5.61 dB -19.79 dB 05 The John Renbourn Group - Fair Flower.wav
DR14 -1.18 dB -18.61 dB 06 The John Renbourn Group - John Barleycorn Is Dead.wav
----------------------------------------------------------------------------------------------
Number of files: 6
Official DR value: DR15
==============================================================================================
Artwork, Design – Eric Von Schmidt
Dulcimer, Mandolin, Fiddle, Harmony Vocals – John Molineux
Engineer – Larry Forkner, Phil Edwards
Engineer [Assistant] – Ron Davis
Flute, Crumhorn, Bagpipes [Northumbrian Small Pipes], Harmony Vocals – Tony Roberts
Guitar, Vocals – John Renbourn
Lead Vocals – John Molineux (tracks: B2, B4)
Liner Notes – Ken Roseman
Producer – Mitch Greenhill, Nancy Covey, Tom Bradshaw
Producer [Assistant] – John Chelew
Tabla – Keshav Sathe
Vocals – Jacqui McShee
When the network did not exist and at the time of purchase music, I often faced sealed LPs, without oportunity able to listen them. How to choose and buy without a mistake?
Well, in my case I always depended on my instincts. Sometimes a simple but attractive cover was the final choice (evidently based on artists I knew). An excellent example is this double LP of “The John Renbourn Group”, knew about John Renbourn next to Jacqui McShee (Both from Pentangle). But there was a risk, because, I have a special and specific taste in certain type Folk style (instrumentation, performers, etc). This is a live recording in the US in the early 80s, a very controversial date for the recording system… The artificial sound of the eighties acoustic guitars (produced by the famous Ovation guitars, a sound’s disaster!). The other thing that worried me was the instrumentation, will there be electric bass or drums!?
Well, this time my instinct did not disappoint me! This is an traditional live capture: Acoustic guitars with classic sound, McShee’s crystal clear voice with proper instrumentation.
Mention aside is the recording quality, really 5 stars. In short, this is the Folk style that has always touched me.
This album is one of the honorable exceptions to which I refer in music after the seventies.
Fran Solo, MMXVII
Originally a two-LP set, this 70-minute concert CD recorded on April 16, 1981 in San Francisco features the core of the band that appeared on The Enchanted Garden — Jacqui McShee on vocals, Tony Roberts on flute, krumhorn, and pipes, John Molineaux on dulcimer, violin, and mandolin, and Keshav Sathe playing the tabla. The repertory is rooted, of course, in English folk music, including “The Trees They Grow High,” a beautiful a cappella number (“Ye Mariners All”), and “John Barleycorn Is Dead.” Renbourn’s playing is showcased throughout, most notably on “English Dance,” a dazzling 3?-minute guitar solo; “Breton Dance,” by contrast, is a vehicle for the entire band. McShee’s crystalline vocals hold much of the spotlight, and the disc is worth owning just for her performance, her presence making this as valuable as any Pentangle release.
Review by Bruce Eder, allmusic.com
#7#77#7#77#77
#77Лейбл: Guimbarda GS-11.187
Страна-производитель: Spain
Продолжительность: 36:34
Код класса состояния винила: не известно
Треклист:
A1 New Nothynge
A2 The Fish In The Well
A3 Pavan D'Aragon
A4 Variations On My Lady Carey's Dompe
B1 Circle Dance
The Nine Maidens
B2a Clarsach
B2b The Nine Maidens
B2c The Fiddler
Устройство воспроизведения: Marantz 6170
Головка звукоснимателя: SHURE M97xE
Предварительный усилитель: Sansui 9090DB
АЦП: E-MU 0404
----------------------------------------------------------------------------------------------
Analyzed folder: /John Renbourn - The Nine Maidens (LP)
----------------------------------------------------------------------------------------------
DR Peak RMS Filename
----------------------------------------------------------------------------------------------
DR14 -2.03 dB -18.36 dB 01 John Renbourn - LADO 1- New Nothynge.wav
DR13 -1.37 dB -17.59 dB 02 John Renbourn - The Fish In The Well.wav
DR13 -2.64 dB -18.53 dB 03 John Renbourn - Pavan D'Aragon.wav
DR12 -0.12 dB -14.19 dB 04 John Renbourn - Variations On My Lady Carey's Dompe.wav
DR13 -0.20 dB -16.66 dB 05 John Renbourn - LADO 2- Circle Dance.wav
DR13 -1.68 dB -17.22 dB 06 John Renbourn - The Nine Maidens a) Clarsach.wav
DR10 -0.11 dB -13.09 dB 07 John Renbourn - b) The Nine Maidens.wav
DR11 -1.83 dB -14.56 dB 08 John Renbourn - c) The Fiddler.wav
----------------------------------------------------------------------------------------------
Number of files: 8
Official DR value: DR12
==============================================================================================
Engineer – Ian Dent
Producer – John Renbourn
#7#77#77
Не забывайте говорить Спасибо. Не уходите с раздачи!   
Торрент: Зарегистрирован [09 мар 2018, 09:27]
Статус:
Проверен
 
.torrent скачан: 0 раз
Хэш: eedcb3f21e05586ab19421deae7e185a28978cee
Размер: 4.34 ГБ (4 663 202 206 байт)
   Стать Автором раздачи
   
Цитата

Вернуться в Фольклор, народная и этническая музыка (оцифровки)

Кто сейчас на конференции

Сейчас эту тему просматривают: нет зарегистрированных пользователей и гости: 1