(Folk, World & Country) [MC] [24/44,1] The Weavers - Greatest Hits (rec. 1971, 2LP's On One Tape) - 1987, FLAC (image+.cue)

 Статистика раздачи 
Размер: 784.54 МБ   |  Зарегистрирован: 24 апр 2013, 09:09   |   .torrent скачан: 0 раз
Сидеров: 0  [ 0 байт/сек ]     Личеров: 0  [ 0 байт/сек ]  
  
Аватара пользователя
Главный редактор
Главный редактор
 
Раздал: 90.01 ТБ
Скачал: 3.78 ТБ
Ратио: 24.248
Сообщения: 274856
Стаж: 9 лет 1 месяц 20 дней
Откуда: Санкт-Петербург

The Weavers - Greatest Hits
Жанр: Folk, World & Country
Год выпуска: 1987
Лейбл: Vanguard (CVSD 15/16)
Страна-производитель: USA
Аудио кодек: FLAC
Тип рипа: image+.cue
Формат записи: 32/192
Формат раздачи: 24/44,1
Продолжительность: 01:05:32
Источник оцифровки: автором раздачи
Код класса состояния магнитоплёнки: Ex
Устройство воспроизведения: Aiwa XR-EM20
Предварительный усилитель: встроенный
АЦП: Juli@
Программа-оцифровщик: Adobe Audition CS6 5.0.2.
Обработка: без обработки

01 When The Saints Go Marching In
02 Kisses Sweeter Than Wine
03 Tzena, Tzena, Tzena
04 Last Night I Had The Strangest Dream
05 Wimoweh
06 On Top Of Old Smokey
07 Follow The Drinking Gourd
08 Sixteen Tons
09 Guantanamera
10 Wreck Of The "John B"
11 Rock Island Line
12 Around The World
13 Goodnight Irene
14 Erie Canal
15 Wild Goose Grasses (In Tarrytown)
16 This Land Is Your Land
17 House Of The Rising Sun
18 Aunt Rhodie
19 Gotta Travel On
20 Michael Row The Boat Ashore
21 Old Riley
22 Brother Can You Spare A Dime
23 If I Had A Hammer
24 Darling Corey
25 So Long It's Been Good To Know You

Код: Выделить всё
REM GENRE Folk, World, & Country
REM DATE 1987 (rec. 1971)
REM COMENT MC, Compilation (2LP's On One Tape), Vanguard Records USA
TITLE Greatest Hits
PERFORMER The Weavers
FILE "01. Side 1.flac" WAVE
  TRACK 01 AUDIO
    TITLE "01. When The Saints Go Marching In"
    INDEX 01 00:00:00
  TRACK 02 AUDIO
    TITLE "02. Kisses Sweeter Than Wine"
    INDEX 01 02:13:64
  TRACK 03 AUDIO
    TITLE "03. Tzena, Tzena, Tzena"
    INDEX 01 05:28:64
  TRACK 04 AUDIO
    TITLE "04. Last Night I Had The Strangest Dream"
    INDEX 01 06:43:20
  TRACK 05 AUDIO
    TITLE "05. Wimoweh"
    INDEX 01 08:29:22
  TRACK 06 AUDIO
    TITLE "06. On Top Of Old Smokey"
    INDEX 01 10:17:57
  TRACK 07 AUDIO
    TITLE "07. Follow The Drinking Gourd"
    INDEX 01 12:39:62
  TRACK 08 AUDIO
    TITLE "08. Sixteen Tons"
    INDEX 01 14:48:72
  TRACK 09 AUDIO
    TITLE "09. Guantanamera"
    INDEX 01 16:56:42
  TRACK 10 AUDIO
    TITLE "10. Wreck Of The <<John B>>"
    INDEX 01 21:29:08
  TRACK 11 AUDIO
    TITLE "11. Rock Island Line"
    INDEX 01 23:49:21
  TRACK 12 AUDIO
    TITLE "12.  Around The World"
    INDEX 01 26:07:19
  TRACK 13 AUDIO
    TITLE "13. Goodnight Irene"
    INDEX 01 28:58:41
Код: Выделить всё
REM GENRE Folk, World, & Country
REM DATE 1987 (rec. 1971)
REM COMENT MC, Compilation (2LP's On One Tape), Vanguard Records USA
TITLE Greatest Hits
PERFORMER The Weavers
FILE "02. Side 2.flac" WAVE
  TRACK 01 AUDIO
    TITLE "01. Erie Canal"
    INDEX 01 00:00:00
  TRACK 02 AUDIO
    TITLE "02. Wild Goose Grasses (In Tarrytown)"
    INDEX 01 02:19:38
  TRACK 03 AUDIO
    TITLE "03. This Land Is Your Land"
    INDEX 01 05:18:25
  TRACK 04 AUDIO
    TITLE "04. House Of The Rising Sun"
    INDEX 01 08:01:25
  TRACK 05 AUDIO
    TITLE "05. Aunt Rhodie"
    INDEX 01 11:45:50
  TRACK 06 AUDIO
    TITLE "06. Gotta Travel On"
    INDEX 01 13:38:47
  TRACK 07 AUDIO
    TITLE "07. Michael Row The Boat Ashore"
    INDEX 01 17:15:69
  TRACK 08 AUDIO
    TITLE "08. Old Riley"
    INDEX 01 20:53:34
  TRACK 09 AUDIO
    TITLE "09. Brother Can You Spare A Dime"
    INDEX 01 23:20:52
  TRACK 10 AUDIO
    TITLE "10. If I Had A Hammer"
    INDEX 01 26:00:49
  TRACK 11 AUDIO
    TITLE "11. Darling Corey"
    INDEX 01 28:14:62
  TRACK 12 AUDIO
    TITLE "12. So Long It's Been Good To Know You"
    INDEX 01 30:07:72
В папке раздачи.
Не забывайте говорить Спасибо. Не уходите с раздачи!   
Торрент: Зарегистрирован [24 апр 2013, 09:09]
Статус:
Проверен
 
.torrent скачан: 0 раз
Хэш: 4bdf7a42e2484cf679b401b36b34ec82159d4c82
Размер: 784.54 МБ (822 646 010 байт)
   Стать Автором раздачи
   
Цитата
  • Похожие торренты
    Ответы
    Просмотры
    Последнее сообщение

Вернуться в Фольклор, народная и этническая музыка (оцифровки)

Кто сейчас на конференции

Сейчас эту тему просматривают: нет зарегистрированных пользователей и гости: 1