(Turkish Trad, Turkish Folk, Anatolian Folk) [MC] [24/48] Sabahat Akkiraz - Lamekan [Lâmekân] - 2002, FLAC (image+.cue)

 Статистика раздачи 
Размер: 619.03 МБ   |  Зарегистрирован: 21 фев 2019, 08:42   |   .torrent скачан: 0 раз
Сидеров: 0  [ 0 байт/сек ]     Личеров: 0  [ 0 байт/сек ]  
  
Аватара пользователя
Главный редактор
Главный редактор
 
Раздал: 90.01 ТБ
Скачал: 3.78 ТБ
Ратио: 24.248
Сообщения: 273876
Стаж: 9 лет 1 месяц 14 дней
Откуда: Санкт-Петербург

Sabahat Akkiraz - Lamekan [Lâmekân]
Жанр: Turkish Trad, Turkish Folk, Anatolian Folk
Носитель: MC
Год выпуска: 2002
Лейбл: Özdemir Plak 058
Страна-производитель: Турция
Аудио кодек: FLAC
Тип рипа: image+.cue
Формат записи: 24/48
Формат раздачи: 24/48
Продолжительность: 00:50:19
Треклист:
01-Guzel Dost [Güzel Dost]
02-Degirmenim Terse Dondu [Değirmenim Terse Döndü]
03-Lamekan [Lâmekân]
04-Yucesinde Dertli Dertli otusen [Yücesinde Dertli Dertli Ötüşen]
05-Ezgincan
06-Davulcu
07-Bahcede Guller Acmıs [Bahçede Güller Açmış]
08-Askın Divanesi [Aşkın Divanesi]
09-Yuce Dag Basında [Yüce Dağ Başında]
10-Kuletti Derunum [Kületti Derunum]
11-Garip Anam
12-Halaylar
Источник оцифровки: автором раздачи
Код класса состояния MC: Ex
Устройство воспроизведения: Technics RS-TR 373
Предварительный усилитель: Yamaha A-500
АЦП: Lexicon Alpha
Программа-оцифровщик: Audacity [Ubuntu]
Обработка: Без обработки



Доп. информация:
REM GENRE "Turkish Trad, Turkish Folk, Anatolian Folk"
REM DATE "2002"
PERFORMER "Sabahat Akkiraz"
TITLE "Lamekan"
REM COMMENT "From Cassette"
REM COUNTRY "Turkey"
FILE "Sabahat Akkiraz - Lamekan.flac" WAVE
REM LABEL "Ozdemir Plak"
REM LABELNUMBER "058"
TRACK 01 AUDIO
TITLE "Guzel Dost"
PERFORMER "Sabahat Akkiraz"
INDEX 01 00:00:00
TRACK 02 AUDIO
TITLE "Degirmenim Terse Dondu"
PERFORMER "Sabahat Akkiraz"
INDEX 01 05:01:00
TRACK 03 AUDIO
TITLE "Lamekan"
PERFORMER "Sabahat Akkiraz"
INDEX 01 08:07:04
TRACK 04 AUDIO
TITLE "Yucesinde Dertli Dertli otusen"
PERFORMER "Sabahat Akkiraz"
INDEX 01 11:59:00
TRACK 05 AUDIO
TITLE "Ezgincan"
PERFORMER "Sabahat Akkiraz"
INDEX 01 17:20:00
TRACK 06 AUDIO
TITLE "Davulcu"
PERFORMER "Sabahat Akkiraz"
INDEX 01 20:59:00
TRACK 07 AUDIO
TITLE "Bahcede Guller Acmıs"
PERFORMER "Sabahat Akkiraz"
INDEX 01 25:02:00
TRACK 08 AUDIO
TITLE "Askın Divanesi"
PERFORMER "Sabahat Akkiraz"
INDEX 01 28:13:04
TRACK 09 AUDIO
TITLE "Yuce Dag Basında"
PERFORMER "Sabahat Akkiraz"
INDEX 01 32:00:00
TRACK 10 AUDIO
TITLE "Kuletti Derunum"
PERFORMER "Sabahat Akkiraz"
INDEX 01 36:18:00
TRACK 11 AUDIO
TITLE "Garip Anam"
PERFORMER "Sabahat Akkiraz"
INDEX 01 40:44:00
TRACK 12 AUDIO
TITLE "Halaylar"
PERFORMER "Sabahat Akkiraz"
INDEX 01 45:34:00
Не забывайте говорить Спасибо. Не уходите с раздачи!   
Торрент: Зарегистрирован [21 фев 2019, 08:42]
Статус:
Проверен
 
.torrent скачан: 0 раз
Хэш: 25ffe74685062a36e241797688e661bcf8200629
Размер: 619.03 МБ (649 096 802 байт)
   Стать Автором раздачи
   
Цитата
  • Похожие торренты
    Ответы
    Просмотры
    Последнее сообщение

Вернуться в Фольклор, народная и этническая музыка (оцифровки)

Кто сейчас на конференции

Сейчас эту тему просматривают: нет зарегистрированных пользователей и гости: 1