(Andean-Folk) [LP] [24/96] Pachacamac – Music Of The Incas - 1971, FLAC (tracks+.cue)

 Статистика раздачи 
Размер: 664.53 МБ   |  Зарегистрирован: 31 авг 2017, 04:32   |   .torrent скачан: 0 раз
Сидеров: 0  [ 0 байт/сек ]     Личеров: 0  [ 0 байт/сек ]  
  
Аватара пользователя
Главный редактор
Главный редактор
Я на сайте
 
Раздал: 90.01 ТБ
Скачал: 3.78 ТБ
Ратио: 24.248
Сообщения: 273585
Стаж: 9 лет 1 месяц 11 дней
Откуда: Санкт-Петербург

Pachacamac – Music Of The Incas
Жанр: Andean-Folk
Носитель: LP
Год выпуска: 1971
Лейбл: Columbia/SCX 6489
Страна-производитель: UK
Аудио кодек: FLAC
Тип рипа: tracks+.cue
Формат записи: 24/96
Формат раздачи: 24/96
Продолжительность: 35:01
Треклист:
A1. Totoras
A2. El Castillo
A3. Amorosa Palomita
A4. Huambra Ingrata
A5. Chaburazas
A6. Munapacuj
B1. Cuequita Del Jarron
B2. Los Mamonales
B3. Zamponeando
B4. Bailadora
B5. Tiahuanaco
B6. Walaychu
Источник оцифровки: LP Rip & Full Scan LP Cover: Fran Solo
Код класса состояния винила: NM-
Устройство воспроизведения: Technics SL-1200MK2 Quartz
Головка звукоснимателя: SHURE M97xE With JICO SAS Stylus
Предварительный усилитель: Marantz 2252
АЦП: E-MU 0404
Обработка: Manual DeClick with iZotope RX5
----------------------------------------------------------------------------------------------
Analyzed folder: /Pachacamac - Music Of The Incas (LP)
----------------------------------------------------------------------------------------------
DR Peak RMS Filename
----------------------------------------------------------------------------------------------
DR12 -0.94 dB -15.39 dB 01 Pachacamac - LADO 1- Totoras.wav
DR13 -1.88 dB -16.94 dB 02 Pachacamac - El Castillo.wav
DR13 -2.05 dB -17.30 dB 03 Pachacamac - Amorosa Palomita.wav
DR12 -2.40 dB -18.80 dB 04 Pachacamac - Huambra Ingrata.wav
DR11 -1.82 dB -14.88 dB 05 Pachacamac - Chaburazas.wav
DR13 -1.93 dB -16.49 dB 06 Pachacamac - Munapacuj.wav
DR11 -2.21 dB -14.97 dB 07 Pachacamac - LADO 2- Cuequita Del Jarron.wav
DR12 -2.29 dB -16.58 dB 08 Pachacamac - Los Mamonales.wav
DR13 -2.07 dB -17.31 dB 09 Pachacamac - Zamponeando.wav
DR12 -1.91 dB -15.38 dB 10 Pachacamac - Bailadora.wav
DR11 -0.94 dB -14.95 dB 11 Pachacamac - Tiahuanaco.wav
DR13 -0.72 dB -15.80 dB 12 Pachacamac - Walaychu.wav
----------------------------------------------------------------------------------------------
Number of files: 12
Official DR value: DR12
==============================================================================================
Charango, Guitar – Jean-Paul Ricquier
Cello, Charango – Alain Geoffroy
Guitar, Tiple – Jean-Pierre Bluteau
Bombo (Percussion), Sikus (Andean Pan Flute), Kena (Andean Flute), Tarka – Gerard Geoffroy
Pachacamac is a French group that plays Andean Folk music, led by Alain Geoffroy and Jean-Pierre Bluteau. This is their first work published in 1971.
Пачакамак - французская группа, играющая андскую народную музыку под руководством Алена Джеффруа и Жан-Пьера Блуто. Это их первая работа, выпущенная в 1971 году.
#7#77#77
Не забывайте говорить Спасибо. Не уходите с раздачи!   
Торрент: Зарегистрирован [31 авг 2017, 04:32]
Статус:
Проверен
 
.torrent скачан: 0 раз
Хэш: fa0de02f505148b6de977abb0219d3f0dc84f558
Размер: 664.53 МБ (696 805 037 байт)
   Стать Автором раздачи
   
Цитата
  • Похожие торренты
    Ответы
    Просмотры
    Последнее сообщение

Вернуться в Фольклор, народная и этническая музыка (оцифровки)

Кто сейчас на конференции

Сейчас эту тему просматривают: нет зарегистрированных пользователей и гости: 1