(Folk) [MC] [24/48] Pete Seeger - Waist Deep In The Big Muddy And Other Love Songs (Rec. 1967) - 1993, FLAC (image+.cue)

 Статистика раздачи 
Размер: 598.75 МБ   |  Зарегистрирован: 06 янв 2019, 05:49   |   .torrent скачан: 0 раз
Сидеров: 0  [ 0 байт/сек ]     Личеров: 0  [ 0 байт/сек ]  
  
Аватара пользователя
Главный редактор
Главный редактор
 
Раздал: 90.01 ТБ
Скачал: 3.78 ТБ
Ратио: 24.248
Сообщения: 274898
Стаж: 9 лет 1 месяц 21 день
Откуда: Санкт-Петербург

Pete Seeger (1993)
Waist Deep In The Big Muddy And Other Love Songs. Rec. 1967

Жанр: Folk
Носитель: MC
Год выпуска: 1993
Лейбл: Sony Music/Columbia - CT 57311
Страна-производитель: US
Аудио кодек: FLAC
Тип рипа: image+.cue
Формат записи: 24/96
Формат раздачи: 24/48
Продолжительность: 00:47:50
Тэги в .cue: прописаны
Источник оцифровки: автором раздачи
Код класса состояния магнитной ленты: Ex
Устройство воспроизведения: AKAI GX 95MK2
Магнитная головка: LC-OFC SGX (x2)
Предварительный усилитель: встроенный
АЦП: Juli@
Программа-оцифровщик: Adobe Audition CS6 5.0.2.
Обработка: удаление артефактов

A1 Oh Yes I'd Climb (The Highest Mountain Just For You)
A2 Seek And You Shall Find
A3 The Sinking Of The Reuben James
A4 Waist Deep In The Big Muddy
A5 Last Night I Had The Strangest Dream
A6 Down By The Riverside
B1 Nameless Lick
B2 Over The Hills
B3 East Virginia
B4 My Name Is Liza Kalvelage
B5 My Father's Mansion's Many Rooms
B6 Melodie D'Amour
B7 Those Three Are On My Mind
B8 Come All Ye Fair And Tender Ladies
B9 Los Quatros Generalas

Код: Выделить всё
foobar2000 1.1.3 / Dynamic Range Meter 1.1.1
log date: 2019-01-06 11:31:01
--------------------------------------------------------------------------------
Analyzed: Pete Seeger / Waist Deep In The Big Muddy And Other Love Songs
--------------------------------------------------------------------------------
DR         Peak         RMS     Duration Track
--------------------------------------------------------------------------------
DR13      -0.10 dB   -14.60 dB      4:16 ?-A1 Oh Yes I'd Climb (The Highest Mountain Just For You)
DR13      -0.62 dB   -18.90 dB      7:54 ?-A2 Seek And You Shall Find
DR12      -1.80 dB   -16.62 dB      2:46 ?-A3 The Sinking Of The Reuben James
DR14      -0.39 dB   -17.01 dB      2:58 ?-A4 Waist Deep In The Big Muddy
DR12      -1.80 dB   -16.18 dB      2:54 ?-A5 Last Night I Had The Strangest Dream
DR13      -0.65 dB   -15.17 dB      3:13 ?-A6 Down By The Riverside
DR13      -2.66 dB   -18.45 dB      1:03 ?-B1 Nameless Lick
DR11      -1.57 dB   -18.22 dB      1:42 ?-B2 Over The Hills
DR12      -0.78 dB   -15.51 dB      2:37 ?-B3 East Virginia
DR13      -0.28 dB   -15.98 dB      4:01 ?-B4 My Name Is Liza Kalvelage
DR12      -1.17 dB   -18.24 dB      2:28 ?-B5 My Father's Mansion's Many Rooms
DR13      -0.62 dB   -16.15 dB      1:53 ?-B6 Melodie D'Amour
DR12      -0.10 dB   -14.60 dB      3:06 ?-B7 Those Three Are On My Mind
DR12      -0.91 dB   -17.22 dB      4:00 ?-B8 Come All Ye Fair And Tender Ladies
DR13      -0.53 dB   -16.48 dB      3:01 ?-B9 Los Quatros Generalas
--------------------------------------------------------------------------------
Number of tracks:  15
Official DR value: DR12
Samplerate:        48000 Hz
Channels:          2
Bits per sample:   24
Bitrate:           1731 kbps
Codec:             FLAC
================================================================================
Код: Выделить всё
REM GENRE "Folk"
REM DATE "1967/1993"
REM COMMENT "Cassette, Album, Reissue, Sony Music/Columbia - CT 57311, US"
PERFORMER "Pete Seeger"
TITLE "Waist Deep In The Big Muddy And Other Love Songs"
FILE "01. Side 1.flac" WAVE
  TRACK 01 AUDIO
    TITLE "A1 Oh Yes I'd Climb (The Highest Mountain Just For You)"
    INDEX 01 00:00:00
  TRACK 02 AUDIO
    TITLE "A2 Seek And You Shall Find"
    INDEX 01 04:15:64
  TRACK 03 AUDIO
    TITLE "A3 The Sinking Of The Reuben James"
    INDEX 01 12:09:43
  TRACK 04 AUDIO
    TITLE "A4 Waist Deep In The Big Muddy"
    INDEX 01 14:55:07
  TRACK 05 AUDIO
    TITLE "A5 Last Night I Had The Strangest Dream"
    INDEX 01 17:53:14
  TRACK 06 AUDIO
    TITLE "A6 Down By The Riverside"
    INDEX 01 20:47:31
FILE "02. Side 2.flac" WAVE
  TRACK 07 AUDIO
    TITLE "B1 Nameless Lick"
    INDEX 01 00:00:00
  TRACK 08 AUDIO
    TITLE "B2 Over The Hills"
    INDEX 01 01:02:45
  TRACK 09 AUDIO
    TITLE "B3 East Virginia"
    INDEX 01 02:44:15
  TRACK 10 AUDIO
    TITLE "B4 My Name Is Liza Kalvelage"
    INDEX 01 05:21:16
  TRACK 11 AUDIO
    TITLE "B5 My Father's Mansion's Many Rooms"
    INDEX 01 09:22:02
  TRACK 12 AUDIO
    TITLE "B6 Melodie D'Amour"
    INDEX 01 11:49:68
  TRACK 13 AUDIO
    TITLE "B7 Those Three Are On My Mind"
    INDEX 01 13:43:21
  TRACK 14 AUDIO
    TITLE "B8 Come All Ye Fair And Tender Ladies"
    INDEX 01 16:49:19
  TRACK 15 AUDIO
    TITLE "B9 Los Quatros Generalas"
    INDEX 01 20:49:09


Не забывайте говорить Спасибо. Не уходите с раздачи!   
Торрент: Зарегистрирован [06 янв 2019, 05:49]
Статус:
Проверен
 
.torrent скачан: 0 раз
Хэш: dda90a260e6a1927f5744ee35145226c4a2b5ffe
Размер: 598.75 МБ (627 834 563 байт)
   Стать Автором раздачи
   
Цитата

Вернуться в Фольклор, народная и этническая музыка (оцифровки)

Кто сейчас на конференции

Сейчас эту тему просматривают: нет зарегистрированных пользователей и гости: 1