(Folk) [LP] [24/96] VA - Best Loved Irish Songs vol.2 - 1972, FLAC (image+.cue)

 Статистика раздачи 
Размер: 675.22 МБ   |  Зарегистрирован: 05 дек 2015, 05:24   |   .torrent скачан: 0 раз
Сидеров: 0  [ 0 байт/сек ]     Личеров: 0  [ 0 байт/сек ]  
  
Аватара пользователя
Главный редактор
Главный редактор
 
Раздал: 90.01 ТБ
Скачал: 3.78 ТБ
Ратио: 24.248
Сообщения: 274106
Стаж: 9 лет 1 месяц 17 дней
Откуда: Санкт-Петербург

Various Artists
Best Loved Irish Songs vol.2

Жанр: Folk
Носитель: LP
Год выпуска: 1972
Лейбл: Boulevard - 4092
Страна-производитель: UK
Аудио кодек: FLAC
Тип рипа: image+.cue
Формат записи: 24/192
Формат раздачи: 24/96
Продолжительность: 00:34:33
Тэги в .cue: прописаны
Источник оцифровки: автором раздачи
Код класса состояния винила: VG
Устройство воспроизведения: Электроника ЭП 017С
Головка звукоснимателя: ГЗМ – 028 (Корвет)
Предварительный усилитель: AMX - 100 (LTO®)
АЦП: Juli@
Программа-оцифровщик: Adobe Audition CS6 5.0.2.
Обработка: удаление артефактов

01. Andy Cole - Macnamara's Band
02. The Fingers - Mountain Dew
03. Roy Guest & Kate Lucy - Love Is Teasin'
04. The Fingers - Boys Of Kilmichael
05. The Fingers - Roddy McCorley
06. Kinghtsbrige Strings - Londonderry Air
07. The Fingers - Croppy Boy
08. The Fingers - 7 Drunken Nights
09. Charles Kennedy - Rose Of Tralee
10. Kate Lucy - I Know Where I'm Goin
11. The Fingers - Minstrel Boy
12. The Fingers - Kevin Barry

Код: Выделить всё
REM GENRE Folk
REM DATE 1972
REM COMENT LP, Vinyl, Compilation, Boulevard 4092, UK
TITLE Best Irish Songs vol.2
PERFORMER Various Artists
FILE "01. Side 1.flac" WAVE
  TRACK 01 AUDIO
    TITLE "01. Macnamara's Band"
    PERFORMER Andy Cole
    INDEX 01 00:00:00
  TRACK 02 AUDIO
    TITLE "02. Mountain Dew"
    PERFORMER The Fingers
    INDEX 01 02:51:64
  TRACK 03 AUDIO
    TITLE "03. Love Is Teasin'"
    PERFORMER Roy Guest & Kate Lucy
    INDEX 01 05:11:11
  TRACK 04 AUDIO
    TITLE "04. Boys Of Kilmichael"
    PERFORMER The Fingers
    INDEX 01 08:22:30
  TRACK 05 AUDIO
    TITLE "05. Roddy McCorley"
    PERFORMER The Fingers
    INDEX 01 12:06:04
  TRACK 06 AUDIO
    TITLE "06. Londonderry Air"
    PERFORMER Kinghtsbrige Strings
    INDEX 01 14:22:24
FILE "02. Side 2.flac" WAVE
  TRACK 07 AUDIO
    TITLE "07. Croppy Boy"
    PERFORMER The Fingers
    INDEX 01 00:00:00
  TRACK 08 AUDIO
    TITLE "08. 7 Drunken Nights"
    PERFORMER The Fingers
    INDEX 01 04:23:71
  TRACK 09 AUDIO
    TITLE "09. Rose Of Tralee"
    PERFORMER Charles Kennedy
    INDEX 01 08:37:01
  TRACK 10 AUDIO
    TITLE "10. I Know Where I'm Goin"
    PERFORMER Kate Lucy
    INDEX 01 10:28:06
  TRACK 11 AUDIO
    TITLE "11. Minstrel Boy"
    PERFORMER The Fingers
    INDEX 01 12:13:57
  TRACK 12 AUDIO
    TITLE "12. Kevin Barry"
    PERFORMER The Fingers
    INDEX 01 14:17:09
Не забывайте говорить Спасибо. Не уходите с раздачи!   
Торрент: Зарегистрирован [05 дек 2015, 05:24]
Статус:
Проверен
 
.torrent скачан: 0 раз
Хэш: 8ae855ec981c1113ea1eb8372a4cc4334baf2c37
Размер: 675.22 МБ (708 015 591 байт)
   Стать Автором раздачи
   
Цитата
  • Похожие торренты
    Ответы
    Просмотры
    Последнее сообщение

Вернуться в Фольклор, народная и этническая музыка (оцифровки)

Кто сейчас на конференции

Сейчас эту тему просматривают: нет зарегистрированных пользователей и гости: 1