(Folk, Romani) [LP] [24/96] Apollonia – Gipsy Songs - Szekely Folk Songs - 1973, FLAC (image+.cue)

 Статистика раздачи 
Размер: 828.32 МБ   |  Зарегистрирован: 14 сен 2018, 10:26   |   .torrent скачан: 0 раз
Сидеров: 0  [ 0 байт/сек ]     Личеров: 0  [ 0 байт/сек ]  
  
Аватара пользователя
Главный редактор
Главный редактор
 
Раздал: 90.01 ТБ
Скачал: 3.78 ТБ
Ратио: 24.248
Сообщения: 274898
Стаж: 9 лет 1 месяц 21 день
Откуда: Санкт-Петербург

Apollonia (1973)
Gipsy Songs / Szekely Folk Songs

Жанр: Folk, Romani
Носитель: LP
Год выпуска: 1973
Лейбл: Qualiton – SLPX 10 133
Страна-производитель: Hungary
Аудио кодек: FLAC
Тип рипа: image+.cue
Формат записи: 24/192
Формат раздачи: 24/96
Продолжительность: 00:44:31
Тэги в .cue: прописаны
Источник оцифровки: автором раздачи
Код класса состояния винила: VG
Устройство воспроизведения: Электроника ЭП 017С
Головка звукоснимателя: ГЗМ – 028 (Корвет)
Предварительный усилитель: AMX - 100 (LTO®)
АЦП: Juli@
Программа-оцифровщик: Adobe Audition CS6 5.0.2.
Обработка: удаление артефактов

Апполония Ковач родилась в Трансильвании. С детских лет она поёт, хочет стать актрисой. Сначала она выступала в Трансильвании в небольших театральных труппах, вскоре же на неё обратили внимание. Государственный театр в Надьвараде заключил с актрисой контракт. Проведённые в этом театре десять лет были школой мастерства, актриса покинула его будучи уже зрелым мастером. Отсюда Апполония Ковач едет В Будапешт.
Вскоре её имя стало широко известно не только в Будапеште, но и по всей стране.
На этой пластинке звучат в исполнении Апполонии Ковач народные сейкейские песни - песни её дедства, её родной деревни, цыганские песни. Талант Апполонии Ковач нашёл своё наилучшее выражение в исполнении песен венгерских цыган. Можно смело сказать, что именно благодаря ей эти песни стали популярными по всей стране, и не только в Венгрии, но и везде, где побывала сама Апполония Ковач и куда дошли её пластинки.

Gipsy Songs

A1 Gipsy Lament (This Forest Is Round) - When I Set Off To Pest - Red Jug Full Of Wine
Folk Songs From Menasag
A2 The Lower End Of Menasag - I Bought My Boots Today - It's No Good Going To Csomortan - My Husband Is Fickle
A3 My Mother Told So
Gipsy Songs
B1 Both My Eyes Weep
В2 You Can Go Now - Hej, Dalade, Dalade - Three Dishes Of Lamb - Don't Kiss Me On The Bench
Folk Songs From The Nyarad Region
B3 The Troubled River Nyarad - Sand And Gravel Line The Front Of Our House - Good God, How Gay I Was
Gipsy Songs
B4 In A Black Village - Richie

Код: Выделить всё
foobar2000 1.1.3 / Dynamic Range Meter 1.1.1
log date: 2018-09-14 13:14:32
--------------------------------------------------------------------------------
Analyzed: Apollonia / Gipsy Songs
--------------------------------------------------------------------------------
DR         Peak         RMS     Duration Track
--------------------------------------------------------------------------------
DR14      -0.10 dB   -18.30 dB      8:06 ?-A1 Gipsy Lament (This Forest Is Round) - When I Set Off To Pest - Red Jug Full Of Wine
DR11      -0.63 dB   -17.31 dB      9:52 ?-A2 The Lower End Of Menasag - I Bought My Boots Today - It's No Good Going To Csomortan - My Husband Is Fickle
DR12      -0.10 dB   -17.82 dB      3:38 ?-A3 My Mother Told So
DR12      -0.41 dB   -17.86 dB      3:04 ?-B1 Both My Eyes Weep
DR13      -0.10 dB   -17.83 dB      8:05 ?-В2 You Can Go Now - Hej, Dalade, Dalade - Three Dishes Of Lamb - Don't Kiss Me On The Bench
DR13      -0.10 dB   -17.92 dB      6:40 ?-B3 The Troubled River Nyarad - Sand And Gravel Line The Front Of Our House - Good God, How Gay I Was
DR13      -1.71 dB   -20.14 dB      5:06 ?-B4 In A Black Village - Richie
--------------------------------------------------------------------------------
Number of tracks:  7
Official DR value: DR13
Samplerate:        96000 Hz
Channels:          2
Bits per sample:   24
Bitrate:           2588 kbps
Codec:             FLAC
================================================================================
Код: Выделить всё
REM GENRE "Folk, Romani"
REM DATE "1973"
REM COMMENT "Vinyl, LP, Qualiton – SLPX 10 133, Hungary"
PERFORMER "Apollonia"
TITLE "Gipsy Songs"
FILE "01. Side A.flac" WAVE
  TRACK 01 AUDIO
    TITLE "A1 Gipsy Lament (This Forest Is Round) - When I Set Off To Pest - Red Jug Full Of Wine"
    INDEX 01 00:00:00
  TRACK 02 AUDIO
    TITLE "A2 The Lower End Of Menasag - I Bought My Boots Today - It's No Good Going To Csomortan - My Husband Is Fickle "
    INDEX 01 08:06:30
  TRACK 03 AUDIO
    TITLE "A3 My Mother Told So"
    INDEX 01 17:58:20
FILE "02. Side B.flac" WAVE
  TRACK 04 AUDIO
    TITLE "B1 Both My Eyes Weep"
    INDEX 01 00:00:00
  TRACK 05 AUDIO
    TITLE "В2 You Can Go Now - Hej, Dalade, Dalade - Three Dishes Of Lamb - Don't Kiss Me On The Bench "
    INDEX 01 03:04:04
  TRACK 06 AUDIO
    TITLE "B3 The Troubled River Nyarad - Sand And Gravel Line The Front Of Our House - Good God, How Gay I Was"
    INDEX 01 11:08:67
  TRACK 07 AUDIO
    TITLE "B4 In A Black Village - Richie"
    INDEX 01 17:49:19


Не забывайте говорить Спасибо. Не уходите с раздачи!   
Торрент: Зарегистрирован [14 сен 2018, 10:26]
Статус:
Проверен
 
.torrent скачан: 0 раз
Хэш: 6b050a1a8e39400e8fe4b8dad6991eafc72e5249
Размер: 828.32 МБ (868 555 881 байт)
   Стать Автором раздачи
   
Цитата

Вернуться в Фольклор, народная и этническая музыка (оцифровки)

Кто сейчас на конференции

Сейчас эту тему просматривают: нет зарегистрированных пользователей и гости: 1