(Folk, Country) [LP] [24/96] Mark Duffy - Tribute To Glen Campbell - 1973, FLAC (image+.cue)

 Статистика раздачи 
Размер: 745.64 МБ   |  Зарегистрирован: 17 июл 2019, 11:57   |   .torrent скачан: 0 раз
Сидеров: 0  [ 0 байт/сек ]     Личеров: 0  [ 0 байт/сек ]  
  
Аватара пользователя
Главный редактор
Главный редактор
 
Раздал: 90.01 ТБ
Скачал: 3.78 ТБ
Ратио: 24.248
Сообщения: 274187
Стаж: 9 лет 1 месяц 18 дней
Откуда: Санкт-Петербург

Mark Duffy - Tribute To Glen Campbell (1973)

This TRIBUTE is produced by CONTOUR RECORDS and sung by MARK DUFFY backed by the session players.

Жанр: Folk, Country
Носитель: LP
Год выпуска: 1973
Лейбл: Contour - 2870 305
Страна-производитель: UK
Аудио кодек: FLAC
Тип рипа: image+.cue
Формат записи: 24/192
Формат раздачи: 24/96
Продолжительность: 00:36:06
Тэги в .cue: прописаны
Источник оцифровки: автором раздачи
Код класса состояния винила: VG
Устройство воспроизведения: Электроника ЭП 017С
Головка звукоснимателя: ГЗМ-053
Предварительный усилитель: AMX - 100 (LTO®)
АЦП: ESI Juli@
Программа-оцифровщик: Adobe Audition
Обработка: удаление артефактов

Глен Кэмпбелл (англ. Glen Campbell; 22 апреля 1936 — 8 августа 2017) — американский актёр, певец и гитарист, ранние записи которого способствовали размыванию границ между кантри-музыкой и традиционной эстрадой. Обладатель
премии «Грэмми» за лучший альбом 1968 года.
https://ru.wikipedia.org/wiki/Кэмпбелл,_Глен

A1 By The Time I Get To Phoenix
A2 Gentle On My Mind
A3 Try A Little Kindness
A4 Mary In The Morning
A5 The Impossible Dream
A6 Galveston
B1 Wichita Lineman
B2 Where's The Playground Susie
B3 Dreams Of The Everyday Housewife
B4 Didn't We Girl
B5 Everything A Man Could Ever Need
B6 Honey Come Back
Код: Выделить всё
foobar2000 1.1.3 / Dynamic Range Meter 1.1.1
log date: 2019-07-17 10:34:32
--------------------------------------------------------------------------------
Analyzed: Mark Duffy / Tribute To Glen Campbell
--------------------------------------------------------------------------------
DR         Peak         RMS     Duration Track
--------------------------------------------------------------------------------
DR13      -2.13 dB   -18.30 dB      3:14 ?-A1 By The Time I Get To Phoenix
DR12      -0.10 dB   -14.17 dB      3:08 ?-A2 Gentle On My Mind
DR12      -0.18 dB   -14.97 dB      2:27 ?-A3 Try A Little Kindness
DR11      -1.51 dB   -16.43 dB      3:09 ?-A4 Mary In The Morning
DR12      -0.54 dB   -16.90 dB      2:44 ?-A5 The Impossible Dream
DR12      -0.10 dB   -15.19 dB      2:57 ?-A6 Galveston
DR11      -0.42 dB   -14.76 dB      3:25 ?-B1 Wichita Lineman
DR11      -0.10 dB   -14.45 dB      2:50 ?-B2 Where's The Playground Susie
DR10      -1.55 dB   -15.05 dB      2:29 ?-B3 Dreams Of The Everyday Housewife
DR11      -0.10 dB   -16.67 dB      3:44 ?-B4 Didn't We Girl
DR11      -0.25 dB   -13.94 dB      2:45 ?-B5 Everything A Man Could Ever Need
DR11      -2.54 dB   -17.52 dB      3:13 ?-B6 Honey Come Back
--------------------------------------------------------------------------------
Number of tracks:  12
Official DR value: DR12
Samplerate:        96000 Hz
Channels:          2
Bits per sample:   24
Bitrate:           2748 kbps
Codec:             FLAC
================================================================================

Код: Выделить всё
REM GENRE "Folk, Country"
REM DATE "1973"
REM COMMENT "Vinyl, LP, Compilation, Contour - 2870 305, UK"
PERFORMER "Mark Duffy"
TITLE "Tribute To Glen Campbell"
FILE "01. Side 1.flac" WAVE
  TRACK 01 AUDIO
    TITLE "A1 By The Time I Get To Phoenix "
    INDEX 01 00:00:00
  TRACK 02 AUDIO
    TITLE "A2 Gentle On My Mind"
    INDEX 01 03:14:05
  TRACK 03 AUDIO
    TITLE "A3 Try A Little Kindness"
    INDEX 01 06:22:39
  TRACK 04 AUDIO
    TITLE "A4 Mary In The Morning"
    INDEX 01 08:49:64
  TRACK 05 AUDIO
    TITLE "A5 The Impossible Dream"
    INDEX 01 11:58:43
  TRACK 06 AUDIO
    TITLE "A6 Galveston"
    INDEX 01 14:42:23
FILE "02. Side 2.flac" WAVE
  TRACK 07 AUDIO
    TITLE "B1 Wichita Lineman"
    INDEX 01 00:00:00
  TRACK 08 AUDIO
    TITLE "B2 Where's The Playground Susie "
    INDEX 01 03:25:33
  TRACK 09 AUDIO
    TITLE "B3 Dreams Of The Everyday Housewife"
    INDEX 01 06:15:27
  TRACK 10 AUDIO
    TITLE "B4 Didn't We Girl"
    INDEX 01 08:44:38
  TRACK 11 AUDIO
    TITLE "B5 Everything A Man Could Ever Need"
    INDEX 01 12:28:74
  TRACK 12 AUDIO
    TITLE "B6 Honey Come Back"
    INDEX 01 15:13:53


Не забывайте говорить Спасибо. Не уходите с раздачи!   
Торрент: Зарегистрирован [17 июл 2019, 11:57]
Статус:
Проверен
 
.torrent скачан: 0 раз
Хэш: 7ec0371cea13a16052858e5662e15902d65d94b0
Размер: 745.64 МБ (781 864 731 байт)
   Стать Автором раздачи
   
Цитата
  • Похожие торренты
    Ответы
    Просмотры
    Последнее сообщение

Вернуться в Фольклор, народная и этническая музыка (оцифровки)

Кто сейчас на конференции

Сейчас эту тему просматривают: нет зарегистрированных пользователей и гости: 1