(Alternative Country, Alternative Folk) [LP] [24/96] Woven Hand / Wovenhand - The Threshingfloor - 2010, FLAC (tracks+.cue)

 Статистика раздачи 
Размер: 965.59 МБ   |  Зарегистрирован: 17 янв 2016, 10:09   |   .torrent скачан: 0 раз
Сидеров: 0  [ 0 байт/сек ]     Личеров: 0  [ 0 байт/сек ]  
  
Аватара пользователя
Главный редактор
Главный редактор
 
Раздал: 90.01 ТБ
Скачал: 3.78 ТБ
Ратио: 24.248
Сообщения: 274856
Стаж: 9 лет 1 месяц 20 дней
Откуда: Санкт-Петербург

Wovenhand - The Threshingfloor
Жанр: Alternative Country, Alternative Folk
Носитель: LP
Год выпуска: 2010
Лейбл: Glitterhouse Records - GRLP 713
Страна-производитель: Germany
Аудио кодек: FLAC
Тип рипа: tracks+.cue
Формат записи: 24/96
Формат раздачи: 24/96
Продолжительность: 00:46:02
Треклист:
Side 1
A1 - Sinking Hands
A2 - The Threshingfloor
A3 - A Holy Measure
A4 - Raise Her Hands
A5 - His Rest
A6 - Singing Grass
Music By - Pascal Humbert / Words By - David E. Edwards
Side 2
B1 - Behind Your Breath
B2 - Truth
Written-By - New Order
B3 - Terre Haute
Flute [Hungarian Shepherd's Flute] - Peter Eri
B4 - Orchard Gate
B5 - Wheatstraw
B6 - Denver City
Companies, etc.
Distributed By - Indigo - LP 94679-1
Credits
Artwork, Design - Jay Vollmar
Bass, Guitar - Pascal Humbert
Drums, Percussion - Ordy Garrison
Lacquer Cut By - HL
Producer - David E. Edwards, Robert Ferbrache
Recorded By, Mixed By, Mastered By - Robert Ferbrache, Wovenhand
Words By, Music By - David E. Edwards (tracks: A1 to A5, B1, B3 to B6)
Notes
180gr vinyl
Pressed at Optimal Media
Barcode and Other Identifiers
Barcode: 4 030433 771310
Matrix / Runout (Runout Side A): INDIGO LP 94679-1 BA99350-01 A1 HL
Matrix / Runout (Runout Side B): INDIGO LP 94679-1 BA99350-01 B1 HL
Источник оцифровки: третьим лицом
Код класса состояния винила: NM
Устройство воспроизведения: Bergmann Audio "Magne"
Головка звукоснимателя: Ortofon MC A 90
Предварительный усилитель: MFE Tube One SE
АЦП: Benchmark ADC 1 USB
Программа-оцифровщик: Wavelab 6.1
Обработка: Wavelab 6.1 (manual click removal)
Доп. информация:
foobar2000 1.1.11 / Dynamic Range Meter 1.1.1
log date: 2014-02-18 07:22:51
--------------------------------------------------------------------------------
Analyzed: Wovenhand / The Threshingfloor
--------------------------------------------------------------------------------
DR Peak RMS Duration Track
--------------------------------------------------------------------------------
DR11 -1.42 dB -13.62 dB 3:24 01-Sinking Hands
DR10 -0.91 dB -12.56 dB 3:09 02-The Threshingfloor
DR10 -0.44 dB -12.51 dB 4:21 03-A Holy Measure
DR9 -1.00 dB -11.25 dB 3:56 04-Raise Her Hands
DR9 -0.66 dB -11.77 dB 3:16 05-His Rest
DR9 -3.06 dB -14.50 dB 3:56 06-Singing Grass
DR9 -0.76 dB -11.71 dB 4:53 07-Behind Your Breath
DR10 -0.57 dB -12.45 dB 4:55 08-Truth
DR10 -1.65 dB -12.71 dB 4:03 09-Terre Haute
DR10 -1.82 dB -13.67 dB 5:40 10-Orchard Gate
DR8 -7.58 dB -18.11 dB 0:52 11-Wheatstraw
DR10 -1.38 dB -12.58 dB 3:38 12-Denver City
--------------------------------------------------------------------------------
Number of tracks: 12
Official DR value: DR10
Samplerate: 44100 Hz
Channels: 2
Bits per sample: 16
Bitrate: 910 kbps
Codec: FLAC
================================================================================
Не забывайте говорить Спасибо. Не уходите с раздачи!   
Торрент: Зарегистрирован [17 янв 2016, 10:09]
Статус:
Проверен
 
.torrent скачан: 0 раз
Хэш: cf895125e47a9134862bdca0c3b7b15461771e53
Размер: 965.59 МБ (1 012 498 601 байт)
   Стать Автором раздачи
   
Цитата
  • Похожие торренты
    Ответы
    Просмотры
    Последнее сообщение

Вернуться в Фольклор, народная и этническая музыка (оцифровки)

Кто сейчас на конференции

Сейчас эту тему просматривают: нет зарегистрированных пользователей и гости: 1