(Ethno, Folk) [MC][48/16] VA - Вітання з Канади. Пісні канадських українців (Частина 1) - 2000, FLAC (image+.cue)

 Статистика раздачи 
Размер: 456.87 МБ   |  Зарегистрирован: 16 июн 2012, 10:38   |   .torrent скачан: 0 раз
Сидеров: 0  [ 0 байт/сек ]     Личеров: 0  [ 0 байт/сек ]  
  
Аватара пользователя
Главный редактор
Главный редактор
Я на сайте
 
Раздал: 90.01 ТБ
Скачал: 3.78 ТБ
Ратио: 24.248
Сообщения: 273585
Стаж: 9 лет 1 месяц 11 дней
Откуда: Санкт-Петербург

Various Artists - Вітання з Канади. Пісні канадських українців (Частина 1) - 2000
Жанр: Ethno, Folk
Год выпуска: 2000
Лейбл: Ліда
Страна-производитель: Украина
Аудио кодек: FLAC
Тип рипа: image+.cue
Формат записи: 192/32
Формат раздачи: 48/16
Продолжительность: 01:13:52
Треклист:
Сторона А:
[03:15] 01. Good Times (Веселі часи) - Циганочко-морганочко
[02:55] 02. Good Times (Веселі часи) - Ой, ви очі волошкові
[04:30] 03. Нічна мелодія - Рушив поїзд в дорогу далеку
[02:35] 04. Good Times (Веселі часи) - Над поточком
[04:39] 05. Нічна мелодія - Ой, ти мій миленький
[03:41] 06. Good Times (Веселі часи) - Волинь моя
[03:20] 07. Good Times (Веселі часи) - Серце
[06:26] 08. Нічна мелодія - Ой, дана дана гей
[02:34] 09. Good Times (Веселі часи) - Чумба чумбариня
[03:04] 10. Нові Обрії - Нам приємно вас вітати
Время звучания: 00:37:00
Сторона B:
[02:33] 01. Нічна мелодія - Ой ти козаче
[03:15] 02. Good Times (Веселі часи) - Бодай ся когут знудив
[05:42] 03. Нічна мелодія - Ой, чий то кінь стоїть
[03:20] 04. Good Times (Веселі часи) - Підманула підвела
[07:34] 05. Нічна мелодія - Я Микола ти Микола
[01:34] 06. Нічна мелодія - Все буде гаразд
[02:57] 07. Good Times (Веселі часи) - Листя жовте кружляє
[02:02] 08. Good Times (Веселі часи) - Марш стрільців
[03:42] 09. Калина - Твої очі дівочі
[04:13] 10. Калина - Пішов рідненький в чужину
Время звучания: 00:36:52
Источник оцифровки: автором раздачи
Устройство воспроизведения: TEAC A-550RX Stereo Cassette Deck
Предварительный усилитель: Линейный выход
АЦП: SaundMax Integrated Digital HD Audio
Программа-оцифровщик: Adobe audition 1.5
Обработка: удаление фона, расширение стереобазы, подрезка сторон (начало-конец), ручное редактирование индексной карты.
На всякий случай записал рип на болванку (всяко бывает), результат теста:
Exact Audio Copy V0.99 prebeta 5 from 4. May 2009
Отчёт EAC об извлечении, выполненном 16. июня 2012, 23:17
Various / Вітання з Канади. Пісні канадських українців (Частина 1)
Дисковод: TSSTcorpDVD-ROM SH-D162D Adapter: 0 ID: 0
Режим чтения : Достоверность
Использование точного потока : Да
Отключение кэша аудио : Да
Использование указателей C2 : Нет
Коррекция смещения при чтении : 6
Способность читать области Lead-in и Lead-out : Нет
Заполнение пропущенных сэмплов тишиной : Да
Удаление блоков с тишиной в начале и конце : Нет
При вычислениях CRC использовались нулевые сэмплы : Да
Интерфейс : Установленный внешний ASPI-интерфейс
Выходной формат : Внутренние WAV-операции
Формат сэмплов : 44.100 Гц; 16 бит; стерео
TOC извлечённого CD
Трек | Старт | Длительность | Начальный сектор | Конечный сектор
---------------------------------------------------------------------
1 | 0:00.00 | 3:14.74 | 0 | 14623
2 | 3:14.74 | 2:55.44 | 14624 | 27792
3 | 6:10.43 | 4:29.29 | 27793 | 47996
4 | 10:39.72 | 2:35.59 | 47997 | 59680
5 | 13:15.56 | 4:38.14 | 59681 | 80544
6 | 17:53.70 | 3:41.37 | 80545 | 97156
7 | 21:35.32 | 3:19.56 | 97157 | 112137
8 | 24:55.13 | 6:26.31 | 112138 | 141118
9 | 31:21.44 | 2:33.48 | 141119 | 152641
10 | 33:55.17 | 3:04.33 | 152642 | 166474
11 | 36:59.50 | 2:33.49 | 166475 | 177998
12 | 39:33.24 | 3:14.24 | 177999 | 192572
13 | 42:47.48 | 5:42.46 | 192573 | 218268
14 | 48:30.19 | 3:20.11 | 218269 | 233279
15 | 51:50.30 | 7:33.63 | 233280 | 267317
16 | 59:24.18 | 1:34.19 | 267318 | 274386
17 | 60:58.37 | 2:56.17 | 274387 | 287603
18 | 63:54.54 | 2:02.24 | 287604 | 296777
19 | 65:57.03 | 3:41.36 | 296778 | 313388
20 | 69:38.39 | 4:13.10 | 313389 | 332373
Характеристики диапазона извлечения и сообщения об ошибках
Выбранный диапазон
Имя файла C:\Documents and Settings\Евгений\Рабочий стол\Новая папка (2)\Various - Вітання з Канади. Пісні канадських українців (Частина 1).wav
Пиковый уровень 82.0 %
Качество диапазона 100.0 %
CRC теста CEE4416C
CRC копии CEE4416C
Копирование... OK
Ошибок не произошло
AccurateRip: сводка
Трек 1 нет в базе данных
Трек 2 нет в базе данных
Трек 3 нет в базе данных
Трек 4 нет в базе данных
Трек 5 нет в базе данных
Трек 6 нет в базе данных
Трек 7 нет в базе данных
Трек 8 нет в базе данных
Трек 9 нет в базе данных
Трек 10 нет в базе данных
Трек 11 нет в базе данных
Трек 12 нет в базе данных
Трек 13 нет в базе данных
Трек 14 нет в базе данных
Трек 15 нет в базе данных
Трек 16 нет в базе данных
Трек 17 нет в базе данных
Трек 18 нет в базе данных
Трек 19 нет в базе данных
Трек 20 нет в базе данных
Ни одного трека нет в базе AccurateRip
Конец отчёта
Доп. информация:
Кассета из личной коллекции.
Фирмой "Ліда" выпускались две аудиокассеты данного сборника, - части 1, 2 и MP3 Коллекция состоящая из 133 треков разного качества.
Отдельная благодарность fv007 из "толоки", за предоставленную помощь в опредилении исполнителей...
[/spoiler]
Не забывайте говорить Спасибо. Не уходите с раздачи!   
Торрент: Зарегистрирован [16 июн 2012, 10:38]
Статус:
Проверен
 
.torrent скачан: 0 раз
Хэш: 6eb4acc4ac52c367226ab9d2a45f056deb2ad59c
Размер: 456.87 МБ (479 061 990 байт)
   Стать Автором раздачи
   
Цитата

Вернуться в Фольклор, народная и этническая музыка (оцифровки)

Кто сейчас на конференции

Сейчас эту тему просматривают: нет зарегистрированных пользователей и гости: 1