(Folk, Traditional) [10"] [24/96] Ансамбль песни и пляски Советской Армии п/у Б. Александрова - Песни стран народной демократии - 1956, FLAC (tracks)

 Статистика раздачи 
Размер: 350.32 МБ   |  Зарегистрирован: 01 сен 2016, 06:35   |   .torrent скачан: 0 раз
Сидеров: 0  [ 0 байт/сек ]     Личеров: 0  [ 0 байт/сек ]  
  
Аватара пользователя
Главный редактор
Главный редактор
 
Раздал: 90.01 ТБ
Скачал: 3.78 ТБ
Ратио: 24.248
Сообщения: 274187
Стаж: 9 лет 1 месяц 18 дней
Откуда: Санкт-Петербург

Ансамбль песни и пляски Советской Армии п/у Б. Александрова
Песни стран народной демократии

Жанр: Folk, Traditional
Носитель: 10"
Год выпуска: 1956
Лейбл: МК СССР, Апрелевский завод (Д - 3026-27)
Страна-производитель: USSR
Аудио кодек: FLAC
Тип рипа: tracks
Формат записи: 24/96 (dual mono)
Формат раздачи: 24/96 (mono)
Продолжительность: 00:31:18
Тэги: прописаны
Источник оцифровки: автором раздачи
Код класса состояния винила: G
Устройство воспроизведения: Электроника ЭП 017С
Головка звукоснимателя: ГЗМ – 028 (Корвет)
Предварительный усилитель: AMX - 100 (LTO®)
АЦП: Juli@
Программа-оцифровщик: Adobe Audition CS6 5.0.2
Обработка: реставрация

01.
Солист К. Герасимов - Ох вы, мои горы (болгарская народная песня)
02. Солисты В. Катеринский и В. Никитин - Урожайная песня (венгерскя песня, музыка И. Шаркеши)
03. Солист И. Савчук - Чёрные глаза (албанская народная песня)
04. Солист О. Разумовский - Краковяк
05. Солист Н. Абрамов - Камышинка (чешская песня)
06. Солист Г. Бабаев - Трава-мурава (чешская песня)
07. Солист И. Савчук - Под яблоней (чешская песня)
08. Солист Г. Бабаев - А я сам (чешская песня)
Код: Выделить всё
foobar2000 1.1.3 / Dynamic Range Meter 1.1.1
log date: 2016-08-28 16:21:11
--------------------------------------------------------------------------------
Analyzed: Ансамбль песни и пляски Советской Армии п/у Б. Александрова / Песни стран народной демократии
--------------------------------------------------------------------------------
DR         Peak         RMS     Duration Track
--------------------------------------------------------------------------------
DR8        0.00 dB   -10.47 dB      5:15 ?-Солист К. Герасимов -  Ох вы, мои горы (болгарская народная песня)
DR8        0.00 dB   -10.02 dB      2:24 ?-Солисты В. Катеринский и В. Никитин - Урожайная песня (венгерскя песня, музыка И. Шаркеши)
DR8        0.00 dB   -10.77 dB      5:46 ?-Солист И. Савчук - Чёрные глаза (албанская народная песня)
DR9        0.00 dB   -11.84 dB      2:36 ?-Солист О. Разумовский - Краковяк
DR8        0.00 dB   -11.17 dB      4:04 ?-Солист Н. Абрамов - Камышинка (чешская песня)
DR10       0.00 dB   -12.80 dB      3:07 ?-Солист Г. Бабаев - Трава-мурава (чешская песня)
DR8        0.00 dB   -10.44 dB      4:33 ?-Солист И. Савчук - Под яблоней (чешская песня)
DR11       0.00 dB   -12.75 dB      3:33 ?-Солист Г. Бабаев - А я сам (чешская песня)
--------------------------------------------------------------------------------
Number of tracks:  8
Official DR value: DR9
Samplerate:        96000 Hz
Channels:          1
Bits per sample:   24
Bitrate:           1548 kbps
Codec:             FLAC
================================================================================




Не забывайте говорить Спасибо. Не уходите с раздачи!   
Торрент: Зарегистрирован [01 сен 2016, 06:35]
Статус:
Проверен
 
.torrent скачан: 0 раз
Хэш: ad45aafe1e42cbee02bdef6f10f1575fa7df1c43
Размер: 350.32 МБ (367 332 707 байт)
   Стать Автором раздачи
   
Цитата
  • Похожие торренты
    Ответы
    Просмотры
    Последнее сообщение

Вернуться в Фольклор, народная и этническая музыка (оцифровки)

Кто сейчас на конференции

Сейчас эту тему просматривают: нет зарегистрированных пользователей и гости: 1