(Country) [LP] [24/96] Randy Travis - No Holdin' Back - 1989, FLAC (tracks+.cue)

 Статистика раздачи 
Размер: 665.42 МБ   |  Зарегистрирован: 19 дек 2016, 17:25   |   .torrent скачан: 0 раз
Сидеров: 0  [ 0 байт/сек ]     Личеров: 0  [ 0 байт/сек ]  
  
Аватара пользователя
Главный редактор
Главный редактор
 
Раздал: 90.01 ТБ
Скачал: 3.78 ТБ
Ратио: 24.248
Сообщения: 274043
Стаж: 9 лет 1 месяц 16 дней
Откуда: Санкт-Петербург

Randy Travis - No Holdin' Back
Жанр: Country
Носитель: LP
Год выпуска: 1989
Лейбл: Warner Bros. Records - 1-25988
Страна-производитель: USA
Аудио кодек: FLAC
Тип рипа: tracks+.cue
Формат записи: 32/96
Формат раздачи: 24/96
Продолжительность: 00:31:37
Side 1
A1 - Mining For Coal 3:05
Written-By - Matraca Berg, Ronnie Samoset
A2 - Singing The Blues 2:16
Written-By - Melvin Endsley
A3 - When Your World Was Turning For Me 2:37
Written-By - Arthur Leo 'Doodle' Owens, Dallas Frazier
A4 - He Walked On Water 3:24
Written-By - Allen Shamblin
A5 - No Stoppin' Us Now 3:02
Written-By - Randy Travis
Side 2
B1 - It's Just A Matter Of Time 3:56
Written-By - Belford Hendricks, Brook Benton, Clyde Otis
B2 - Card Carryin' Fool 2:24
Written-By - Byron Hill, Tim Bays
B3 - Somewhere In My Broken Heart 3:13
Written-By - Billy Dean, Richard Leigh
B4 - Hard Rock Bottom Of Your Heart 4:02
Written-By - Hugh Prestwood
B5 - Have A Nice Rest Of Your Life 3:22
Written-By - Mark D. Sanders, Verlon Thompson
Credits
Acoustic Guitar - Brent Mason (tracks: B5), Larry Byrom (tracks: A1 to A5, B1 to B4), Mark Casstevens (tracks: A1 to A5, B2 to B5)
Backing Vocals - Carol Chase (tracks: A5, B4), Cindy Richardson-Walker (tracks: A5, B4), Curtis Young (tracks: A2, A3, A4, B4), Diane Vanette (tracks: B3, B5), Doug Clements (tracks: A2, A3, A4, B4), Fred White (tracks: B1), Greg Walker (tracks: B1), Hurshel Wiginton (tracks: A2, A3, A4, B4), Lisa Silver (tracks: A1, A5, B2, B3, B4, B5), Louis Nunley (tracks: A2, A3, A4, B4), Roy Galloway (tracks: B1), Sheri Huffman (tracks: A1, B2, B3, B5), The Cherry Sisters (tracks: B3, B5), Wendy Johnson (tracks: A1, B2)
Banjo - Bela Fleck (tracks: B4)
Bass - David Hungate (tracks: A2, B2), Jack Williams (tracks: A1, A3, A4, A5, B3, B4, B5)
Bass Vocals - Richard Perry (tracks: B1)
Drums - Eddie Bayers (tracks: B1), Larrie Londin (tracks: A2, A3, B2, B5), Paul Leim (tracks: A1, A4, A5, B3, B4)
Electric Guitar - Billy Joe Walker (tracks: A4, B3, B4), Brent Mason (tracks: A1, B5), Steve Gibson (tracks: A1 to A5, B1 to B4)
Electric Piano - Dennis Burnside (tracks: B3, B4)
Fiddle - Mark O'Connor (tracks: A3, B2, B3)
Guitar [Solo] - Dean Parks (tracks: B1)
Harmonica - Kirk "Jelly Roll" Johnson (tracks: A4, B4, B5), Terry McMillan (tracks: A2)
Harmony Vocals - Matraca Berg (tracks: A1)
Pedal Steel Guitar - Doyle Grisham (tracks: A1 to A5, B1 to B5)
Percussion - Terry McMillan (tracks: A2), Tom Roady (tracks: A1, A3, A4, A5, B3, B4, B5)
Piano - Dennis Burnside (tracks: A1 to A4, B2), Hargus "Pig" Robbins (tracks: A1, B3), John Jarvis (tracks: B1)
Piano [Acoustic] - Dennis Burnside (tracks: B4)
Piano [Wurlitzer] - Dennis Burnside (tracks: A5), Hargus "Pig" Robbins (tracks: A3, B5)
Producer - Lehning (tracks: A1 to A5, B2 to B5), Perry (tracks: B1)
Resonator Guitar [Dobro] - Steve Gibson (tracks: B4)
Resonator Guitar [Dubro] - Jerry Douglas (tracks: A4, A5)
Strings [Arranged By] - Steve Lindsey (tracks: B1)
Synthesizer [And Kurzweil Strings] - Steve Lindsey (tracks: B1)
Twelve-String Guitar - Steve Gibson (tracks: A1)
Notes
Inside sleeve is a lyric sheet. All copyright owners are listed for each track.
A complete list of who was involved in the production and where it was done is also recorded on the inner sleeve.
-----
Track B1 Bass - John Williams.
Unable to verify a link.
-----
Barcode and Other Identifiers
Barcode: 0 7599-25988-1 1
Matrix numbers:
1-25988-A-SR2
1-25988-B-SR2
Источник оцифровки: третьим лицом
Код класса состояния винила: Ex
Устройство воспроизведения: Gradiente DD-200Q
Головка звукоснимателя: Denon DL-110
Предварительный усилитель: MM Phono Pre-amp
АЦП: Sound Blaster X-Fi HD
Программа-оцифровщик: iZotope RX5
Обработка: ClickRepair 3.9.3
Доп. информация:
foobar2000 1.3.8 / Dynamic Range Meter 1.1.1
log date: 2016-08-17 11:29:16
--------------------------------------------------------------------------------
Analyzed: Randy Travis / No Holdin' Back
--------------------------------------------------------------------------------
DR Peak RMS Duration Track
--------------------------------------------------------------------------------
DR12 -2.64 dB -17.20 dB 3:07 01-Mining For Coal
DR13 0.00 dB -16.35 dB 2:18 02-Singing The Blues
DR12 -2.74 dB -17.75 dB 2:39 03-When Your World Was Turning For Me
DR11 -3.87 dB -18.92 dB 3:26 04-He Walked On Water
DR13 -1.87 dB -17.64 dB 3:03 05-No Stoppin' Us Now
DR12 -1.85 dB -16.15 dB 3:57 06-It's Just a Matter Of Time
DR12 -2.50 dB -17.00 dB 2:26 07-Card Carryin' Fool
DR11 -2.63 dB -17.07 dB 3:15 08-Somewhere In My Broken Heart
DR12 0.00 dB -15.44 dB 4:05 09-Hard Rock Bottom Of Your Heart
DR14 -1.34 dB -17.99 dB 3:22 10-Have a Nice Rest Of Your Life
--------------------------------------------------------------------------------
Number of tracks: 10
Official DR value: DR12
Samplerate: 96000 Hz
Channels: 2
Bits per sample: 24
Bitrate: 2723 kbps
Codec: FLAC
=============================================================================
Не забывайте говорить Спасибо. Не уходите с раздачи!   
Торрент: Зарегистрирован [19 дек 2016, 17:25]
Статус:
Проверен
 
.torrent скачан: 0 раз
Хэш: 103f5655fae37b2d7d6ee3b41b022f46cf291442
Размер: 665.42 МБ (697 746 813 байт)
   Стать Автором раздачи
   
Цитата

Вернуться в Фольклор, народная и этническая музыка (оцифровки)

Кто сейчас на конференции

Сейчас эту тему просматривают: нет зарегистрированных пользователей и гости: 1