(Latin, Folk, World, & Country) [LP] [24/192] Atahualpa Yupanqui ‎– Camino Del Indio - 1981, FLAC (image+.cue)

 Статистика раздачи 
Размер: 1.3 ГБ   |  Зарегистрирован: 25 фев 2015, 23:05   |   .torrent скачан: 0 раз
Сидеров: 0  [ 0 байт/сек ]     Личеров: 0  [ 0 байт/сек ]  
  
Аватара пользователя
Главный редактор
Главный редактор
 
Раздал: 90.01 ТБ
Скачал: 3.78 ТБ
Ратио: 24.248
Сообщения: 274187
Стаж: 9 лет 1 месяц 18 дней
Откуда: Санкт-Петербург

Atahualpa Yupanqui ‎– Camino Del Indio
Жанр: Latin, Folk, World, & Country
Носитель: LP
Год выпуска: 1977
Лейбл: Le Chant Du Monde ‎– LDX 74631
Страна-производитель: France
Аудио кодек: FLAC
Тип рипа: image+.cue
Формат записи: 24/192
Формат раздачи: 24/192
Продолжительность: 39:52
Треклист:
A1 Camino Del Indio
A2 Cancion Para Dona Guillerma
A3 Melodia Del Adios Y Danza Rustica
A4 Nieve, Viento Y Sol
A5 Los Dos Abuelos
A6 Chacarera Santiaguena
B1 El Aromo
B2 Poema Para Un Dulce Nombre
B3 Don Emiliano
B4 Tum-Tum Mananita
B5 Dulce Mparacapu
Источник оцифровки: автором раздачи
Код класса состояния винила: VG
Устройство воспроизведения: Dual 1219
Головка звукоснимателя: Shure V15-III
Предварительный усилитель: Angle audio audiophile phono stage
АЦП: M-Audio ProFire610
Программа-оцифровщик: Reaper
Обработка: нет
foobar2000 1.1.13 / Dynamic Range Meter 1.1.1
log date: 2015-02-26 01:02:58
--------------------------------------------------------------------------------
Analyzed: Atahualpa Yupanqui / Camino Del Indio (LDX 74631)
--------------------------------------------------------------------------------
DR Peak RMS Duration Track
--------------------------------------------------------------------------------
DR12 -8.23 dB -24.69 dB 3:42 01-A1 Camino Del Indio
DR12 -8.60 dB -23.65 dB 3:23 02-A2 Cancion Para Doña Guillerma (Written By – C. Colorado)
DR12 -8.84 dB -23.91 dB 4:21 03-A3 Melodia Del Adios Y Danza Rustica (Written by – P. Del Cerro)
DR11 -6.92 dB -24.06 dB 3:17 04-A4 Nieve, Viento Y Sol (Written by – C. Penaloza)
DR12 -7.98 dB -24.04 dB 3:27 05-A5 Los Dos Abuelos
DR11 -9.66 dB -24.42 dB 2:05 06-A6 Chacarera Santiagueña
DR12 -9.07 dB -24.76 dB 4:09 07-B1 El Aromo (Written by – R. Risso)
DR15 -8.96 dB -28.26 dB 5:47 08-B2 Poema Para Un Dulce Nombre
DR11 -8.39 dB -23.11 dB 2:17 09-B3 Don Emiliano (Written by – P. Del Cerro)
DR13 -8.78 dB -26.26 dB 5:13 10-B4 Tum-Tum Mañanita (Written by – J. R. Luna)
DR14 -8.86 dB -27.38 dB 2:10 11-B5 Dulce Mparacapú
--------------------------------------------------------------------------------
Number of tracks: 11
Official DR value: DR12
Samplerate: 192000 Hz
Channels: 2
Bits per sample: 24
Bitrate: 4651 kbps
Codec: FLAC
================================================================================
Не забывайте говорить Спасибо. Не уходите с раздачи!   
Торрент: Зарегистрирован [25 фев 2015, 23:05]
Статус:
Проверен
 
.torrent скачан: 0 раз
Хэш: 2d851541a420cd3c75d6c131fa34e1e42ee7dec0
Размер: 1.3 ГБ (1 395 074 978 байт)
   Стать Автором раздачи
   
Цитата
  • Похожие торренты
    Ответы
    Просмотры
    Последнее сообщение

Вернуться в Фольклор, народная и этническая музыка (оцифровки)

Кто сейчас на конференции

Сейчас эту тему просматривают: нет зарегистрированных пользователей и гости: 1