(Latin, Folk, World, & Country) [LP] [24/192] Atahualpa Yupanqui ‎– Madre Del Monte - 1981, FLAC (image+.cue)

 Статистика раздачи 
Размер: 1.24 ГБ   |  Зарегистрирован: 25 фев 2015, 22:43   |   .torrent скачан: 0 раз
Сидеров: 0  [ 0 байт/сек ]     Личеров: 0  [ 0 байт/сек ]  
  
Аватара пользователя
Главный редактор
Главный редактор
Я на сайте
 
Раздал: 90.01 ТБ
Скачал: 3.78 ТБ
Ратио: 24.248
Сообщения: 273922
Стаж: 9 лет 1 месяц 15 дней
Откуда: Санкт-Петербург

Atahualpa Yupanqui ‎– Madre Del Monte
Жанр: Latin, Folk, World, & Country
Носитель: LP
Год выпуска: 1981
Лейбл: Le Chant Du Monde ‎– LDX 74744
Страна-производитель: France
Аудио кодек: FLAC
Тип рипа: image+.cue
Формат записи: 24/192
Формат раздачи: 24/192
Продолжительность: 37:29
Треклист:
A1 Recauda Tus Prendas 2:17
A2 De Tanto Dir Y Venir 4:20
A3 Guitarra De Pobre 2:52
A4 A Vos Te Hai Pesar 4:30
A5 Nunca Jamas ! 3:35
B1 Viene Clareando 2:55
B2 Huella Triste 3:25
B3 Amalaya El Cielo ! 2:25
B4 Madre Del Monte 4:05
B5 Cordoba Norte 2:20
B6 LaMano De Mi Rumor 3:35
Источник оцифровки: автором раздачи
Код класса состояния винила: Ex
Устройство воспроизведения: Dual 1219
Головка звукоснимателя: Shure V15-III
Предварительный усилитель: Angle audio audiophile phono stage
АЦП: M-Audio ProFire610
Программа-оцифровщик: Reaper
Обработка: нет
foobar2000 1.1.13 / Dynamic Range Meter 1.1.1
log date: 2015-02-26 00:43:17
--------------------------------------------------------------------------------
Analyzed: Atahualpa Yupanqui / Madre del monte (Le Chant Du Monde ‎– LDX 74744)
--------------------------------------------------------------------------------
DR Peak RMS Duration Track
--------------------------------------------------------------------------------
DR12 -5.81 dB -24.03 dB 2:21 01-A1 Recauda Tus Prendas
DR12 -7.32 dB -21.92 dB 4:23 02-A2 De Tanto Dir Y Venir
DR11 -6.94 dB -21.22 dB 2:59 03-A3 Guitarra De Pobre
DR13 -7.38 dB -24.44 dB 4:37 04-A4 A Vos Te Hai Pesar
DR11 -7.33 dB -21.11 dB 3:53 05-A5 Nunca Jamas !
DR11 -6.98 dB -20.98 dB 3:05 06-B1 Viene Clareando
DR12 -4.30 dB -22.21 dB 3:43 07-B2 Huella Triste
DR14 -8.87 dB -26.62 dB 2:15 08-B3 Amalaya El Cielo !
DR12 -8.42 dB -23.42 dB 4:11 09-B4 Madre Del Monte
DR11 -7.45 dB -20.68 dB 2:22 10-B5 Cordoba Norte
DR11 -8.26 dB -23.17 dB 3:39 11-B6 LaMano De Mi Rumor
--------------------------------------------------------------------------------
Number of tracks: 11
Official DR value: DR12
Samplerate: 192000 Hz
Channels: 2
Bits per sample: 24
Bitrate: 4716 kbps
Codec: FLAC
================================================================================
Не забывайте говорить Спасибо. Не уходите с раздачи!   
Торрент: Зарегистрирован [25 фев 2015, 22:43]
Статус:
Проверен
 
.torrent скачан: 0 раз
Хэш: 36f74f87dca108d61e3a9184c5922de2ee4c44e2
Размер: 1.24 ГБ (1 328 140 764 байт)
   Стать Автором раздачи
   
Цитата
  • Похожие торренты
    Ответы
    Просмотры
    Последнее сообщение

Вернуться в Фольклор, народная и этническая музыка (оцифровки)

Кто сейчас на конференции

Сейчас эту тему просматривают: нет зарегистрированных пользователей и гости: 1