(Country, Folk, Christmas) [LP] [24/96] Burl Ives - Have A Holly Jolly Christmas - 1965 (Mono), FLAC (tracks+.cue)

 Статистика раздачи 
Размер: 260.74 МБ   |  Зарегистрирован: 10 дек 2016, 21:28   |   .torrent скачан: 0 раз
Сидеров: 0  [ 0 байт/сек ]     Личеров: 0  [ 0 байт/сек ]  
  
Аватара пользователя
Главный редактор
Главный редактор
 
Раздал: 90.01 ТБ
Скачал: 3.78 ТБ
Ратио: 24.248
Сообщения: 274856
Стаж: 9 лет 1 месяц 20 дней
Откуда: Санкт-Петербург

Burl Ives - Have A Holly Jolly Christmas
Жанр: Country, Folk, Christmas
Носитель: LP, Mono
Год выпуска: 1965
Лейбл: Decca - DL 4689
Страна-производитель: USA
Аудио кодек: FLAC
Тип рипа: tracks+.cue
Формат записи: 24/96
Формат раздачи: 24/96
Продолжительность: 00:29:31
Side 1
A1 - A Holly Jolly Christmas 2:08
Written-By - Johnny Marks
A2 - Christmas Is A Birthday 2:43
Written-By - Dick Manning, Gregory Paul Deutsch
A3 - Santa Claus Is Comin' To Town 2:10
Written-By - Haven Gillespie, J. Fred Coots
A4 - Chistmas Child (Loo, Loo, Loo) 2:53
Written-By - Sid Tepper, Roy C. Bennett
A5 - White Christmas 2:09
Written-By - Irving Berlin
A6 - Christmas Can't Be Far Away 2:32
Written-By - Boudleaux Bryant
Side 2
B1 - The Little Drummer Boy 3:17
Written-By - Harry Simeone, Henry V. Onorati, Katherine K. Davis
B2 - Snow For Johnny 2:35
Written-By - Conway Twitty, Fred Carter
B3 - Rudolph The Red Nosed Reindeer 2:09
Written-By - Johnny Marks
B4 - Winter Wonderland 2:14
Written-By - Dick Smith, Felix Bernard
B5 - Silver Bells 2:12
Written-By - Jay Livingston, Ray Evans
B6 - I Heard The Bells On Christmas Day 2:12
Written-By - Johnny Marks
Companies, etc.
Manufactured By - Decca Records, Inc.
Credits
Directed By [Orchestra & Chorus] - Owen Bradley
Producer - Milt Gabler
Notes
Reg. U.S. Pat. Off: Marca Registrada
M'f'r'd by Decca Records Inc. New York - U.S.A.
Barcode and Other Identifiers
Matrix / Runout (Matrix, Side 1): MG 10078
Matrix / Runout (Matrix, Side 2): MG 10079
Источник оцифровки: третьим лицом
Код класса состояния винила: VG+
Устройство воспроизведения: Technics SL1200 Mk2
Головка звукоснимателя: Nagatron 350e
Предварительный усилитель: Pioneer SX-850
АЦП: E-MU-0404
Программа-оцифровщик: Не указано
Обработка: Не указано
Доп. информация:
foobar2000 1.3.2 / Dynamic Range Meter 1.1.1
log date: 2014-12-06 18:05:17
--------------------------------------------------------------------------------
Analyzed: Burl Ives / Have A Holly Jolly Christmas
--------------------------------------------------------------------------------
DR Peak RMS Duration Track
--------------------------------------------------------------------------------
DR12 -6.01 dB -21.04 dB 2:16 01-A Holly Jolly Christmas
DR13 -6.06 dB -20.56 dB 2:42 02-Christmas Is A Birthday
DR12 -6.03 dB -20.70 dB 2:10 03-Santa Claus Is Comin' To Town
DR14 -8.55 dB -24.35 dB 2:50 04-Chistmas Child (Loo, Loo, Loo)
DR12 -8.48 dB -22.54 dB 2:10 05-White Christmas
DR13 -7.41 dB -23.30 dB 2:33 06-Christmas Can't Be Far Away
DR13 -9.54 dB -26.13 dB 3:16 07-The Little Drummer Boy
DR13 -8.32 dB -22.98 dB 2:38 08-Snow For Johnny
DR13 -9.11 dB -24.40 dB 2:11 09-Rudolph The Red Nosed Reindeer
DR12 -10.65 dB -25.45 dB 2:17 10-Winter Wonderland
DR12 -11.24 dB -25.42 dB 2:14 11-Silver Bells
DR12 -10.58 dB -25.59 dB 2:12 12-I Heard The Bells On Christmas Day
--------------------------------------------------------------------------------
Number of tracks: 12
Official DR value: DR13
Samplerate: 96000 Hz
Channels: 2
Bits per sample: 24
Bitrate: 1122 kbps
Codec: FLAC
================================================================================
Не забывайте говорить Спасибо. Не уходите с раздачи!   
Торрент: Зарегистрирован [10 дек 2016, 21:28]
Статус:
Проверен
 
.torrent скачан: 0 раз
Хэш: 0d80b01367cb229c3a84e09305e6cffa9009c2d8
Размер: 260.74 МБ (273 401 021 байт)
   Стать Автором раздачи
   
Цитата

Вернуться в Фольклор, народная и этническая музыка (оцифровки)

Кто сейчас на конференции

Сейчас эту тему просматривают: нет зарегистрированных пользователей и гости: 1