(Country, Christmas) [LP] [24/96] Randy Travis - An Old Time Christmas - 1989, FLAC (tracks+.cue)

 Статистика раздачи 
Размер: 597.88 МБ   |  Зарегистрирован: 18 дек 2016, 09:40   |   .torrent скачан: 0 раз
Сидеров: 0  [ 0 байт/сек ]     Личеров: 0  [ 0 байт/сек ]  
  
Аватара пользователя
Главный редактор
Главный редактор
 
Раздал: 90.01 ТБ
Скачал: 3.78 ТБ
Ратио: 24.248
Сообщения: 274788
Стаж: 9 лет 1 месяц 19 дней
Откуда: Санкт-Петербург

Randy Travis - An Old Time Christmas
Жанр: Country, Christmas
Носитель: LP
Год выпуска: 1989
Лейбл: Warner Bros. Records - 9 25972-1 / 1-25972
Страна-производитель: USA
Аудио кодек: FLAC
Тип рипа: tracks+.cue
Формат записи: 32/96
Формат раздачи: 24/96
Продолжительность: 00:27:50
Side 1
A1 - Old Time Christmas 3:12
Written-By - Stewart Harris
A2 - Winter Wonderland 2:21
Written-By - Richard Smith, Felix Bernard
A3 - Meet Me Under The Mistletoe 2:39
Written-By - Betsy Jackson, Joe Collins, Mark Irwin
A4 - White Christmas Makes Me Blue 3:25
Written-By - Neil Patton Rogers, Rich Grissom
A5 - Santa Claus Is Coming To Town 2:03
Written-By - Haven Gillespie, J. Fred Coots
Side 2
B1 - God Rest Ye Merry Gentlemen 2:45
Arranged By - Kyle Lehning, Randy Travis
B2 - Pretty Paper 2:37
Written-By - Willie Nelson
B3 - Oh, What A Silent Night 2:32
Written-By - Kathy Louvin, Mark Collie
B4 - How Do I Wrap My Heart For Christman 2:44
Written-By - Paul Overstreet, Randy Travis
B5 - The Christmas Song 3:27
Written-By - Mel Torme, Robert Wells
Credits
Acoustic Guitar - Larry Byrom, Mark Casstevens, Teddy Irwin
Backing Vocals - Alan LeBoeuf, Carol Chase, Cindy Richardson, Diane Vanette, Kathie Baillie, Lisa Silver, Michael Bonagura, Sherilyn Huffman, Wendy Suits
Bass - David Hungate, Jack Williams
Bouzouki - Steve Gibson
Drums - Eddie Bayers, James Stroud, Jerry Kroon, Larrie Londin
Engineer - Joe Bogan, Kirt Odle, Kyle Lehning
Fiddle - Mark O'Connor
Guitar - Brent Mason, Greg Jennings, Randy Travis, Steve Gibson
Guitar [Dobro] - Jerry Douglas
Harmonica - Jelly Roll Johnson, Terry McMillan
Keyboards - Dennis Burnside, Hargus (Pig) Robbins
Percussion - Farrell Morris, Terry McMillan
Producer - Kyle Lehning
Recorder - Jim Horn
Steel Guitar - Doyle Grisham
Vocals - Randy Travis
Notes
Issued with Custom Printed Inner Sleeve with Credits, Etc.
1st Catalog # from Spine
2nd Catalot # from Labels
Barcode and Other Identifiers
Barcode: 0 7599-25972-1 0
1-25972-A-SR1
1-25972-B-SR1
Источник оцифровки: третьим лицом
Код класса состояния винила: Ex
Устройство воспроизведения: Gradiente DD-200Q
Головка звукоснимателя: Denon DL-110
Предварительный усилитель: MM Phono Pre-amp
АЦП: Sound Blaster X-Fi HD
Программа-оцифровщик: iZotope RX5
Обработка: ClickRepair 3.9.3
Доп. информация:
foobar2000 1.3.8 / Dynamic Range Meter 1.1.1
log date: 2016-11-07 19:18:01
--------------------------------------------------------------------------------
Analyzed: Randy Travis / An Old Time Christmas
--------------------------------------------------------------------------------
DR Peak RMS Duration Track
--------------------------------------------------------------------------------
DR13 -2.02 dB -18.09 dB 3:13 01-Old Time Christmas
DR12 -2.27 dB -16.67 dB 2:23 02-Winter Wonderland
DR14 -0.10 dB -15.78 dB 2:42 03-Meet Me Under The Mistletoe
DR14 -1.17 dB -18.18 dB 3:26 04-White Christmas Makes Me Blue
DR13 -1.42 dB -17.43 dB 2:04 05-Santa Claus Is Coming To Town
DR12 -1.81 dB -15.86 dB 2:46 06-God Rest Ye Merry Gentlemen
DR13 -2.06 dB -18.03 dB 2:38 07-Pretty Paper
DR12 -0.10 dB -15.21 dB 2:33 08-Oh, What a Silent Night
DR13 -0.17 dB -16.04 dB 2:47 09-How Do I Wrap My Heart For Christmas
DR13 -0.88 dB -17.06 dB 3:18 10-The Christmas Song
--------------------------------------------------------------------------------
Number of tracks: 10
Official DR value: DR13
Samplerate: 96000 Hz
Channels: 2
Bits per sample: 24
Bitrate: 2789 kbps
Codec: FLAC
================================================================================
Не забывайте говорить Спасибо. Не уходите с раздачи!   
Торрент: Зарегистрирован [18 дек 2016, 09:40]
Статус:
Проверен
 
.torrent скачан: 0 раз
Хэш: 692e329596610474367395eeadcdf9bb9a46096d
Размер: 597.88 МБ (626 922 334 байт)
   Стать Автором раздачи
   
Цитата

Вернуться в Фольклор, народная и этническая музыка (оцифровки)

Кто сейчас на конференции

Сейчас эту тему просматривают: нет зарегистрированных пользователей и гости: 1