(Folk, World, & Country) [LP] [16/44,1] VA - Mundial '86 Mexico (Music From the Countries - Finalists)/Мундиал '86 - 1986, FLAC (image+.cue)

 Статистика раздачи 
Размер: 233.96 МБ   |  Зарегистрирован: 26 май 2016, 13:47   |   .torrent скачан: 0 раз
Сидеров: 0  [ 0 байт/сек ]     Личеров: 0  [ 0 байт/сек ]  
  
Аватара пользователя
Главный редактор
Главный редактор
 
Раздал: 90.01 ТБ
Скачал: 3.78 ТБ
Ратио: 24.248
Сообщения: 274856
Стаж: 9 лет 1 месяц 20 дней
Откуда: Санкт-Петербург

Various Artists
Mundial '86 Mexico
(Music From the Countries - Finalists)

Жанр: Folk, World, & Country
Носитель: LP
Год выпуска: 1986
Лейбл: Balkanton (BMA 11904)
Страна-производитель: Bulgaria
Аудио кодек: FLAC
Тип рипа: image+.cue
Формат записи: 16/44,1
Формат раздачи: 16/44,1
Продолжительность: 00:38:08
Тэги в .cue: прописаны
Источник оцифровки: Antikata
Код класса состояния винила: VG
Устройство воспроизведения: Simens RW 300
Головка звукоснимателя: AT 71
Предварительный усилитель: Larsen
АЦП: Realteck
Программа-оцифровщик: Audacity
Обработка: удаление артефактов, частичная реставрация (samopal records)

A1 Mexico
A2 Bulgaria
A3 Brazil
A4 Denmark
A5 Canada
A6 Paraguay
A7 England
A8 South Korea
A9 France
A10 Scotland
A11 Portugal
A12 Algeria
B1 Italy
B2 Argentina
B3 USSR
B4 Northern Ireland
B5 Poland
B6 Spain
B7 Hungary
B8 Iraq
B9 Belgium
B10 Uruguay
B11 Morocco
B12 FRG

Код: Выделить всё
REM GENRE Folk, World, & Country
REM DATE 1986
REM COMMENT Vinyl, LP, Compilation, Balkanton - BMA 11904, Bulgaria
TITLE Mundial '86 Mexico (Music From the Countries - Finalists)/Мундиал '86
PERFORMER Various Artists
FILE "01. Мундиал '86 - Сторона А.flac" WAVE
  TRACK 01 AUDIO
    TITLE "A1 Mexico"
    INDEX 01 00:00:00
  TRACK 02 AUDIO
    TITLE "A2 Bulgaria"
    INDEX 01 01:42:65
  TRACK 03 AUDIO
    TITLE "A3 Brazil"
    INDEX 01 03:06:33
  TRACK 04 AUDIO
    TITLE "A4 Denmark"
    INDEX 01 04:35:38
  TRACK 05 AUDIO
    TITLE "A5 Canada"
    INDEX 01 06:01:53
  TRACK 06 AUDIO
    TITLE "A6 Paraguay"
    INDEX 01 07:49:24
  TRACK 07 AUDIO
    TITLE "A7 England"
    INDEX 01 09:05:07
  TRACK 08 AUDIO
    TITLE "A8 South Korea"
    INDEX 01 10:49:18
  TRACK 09 AUDIO
    TITLE "A9 France"
    INDEX 01 12:14:07
  TRACK 10 AUDIO
    TITLE "A10 Scotland"
    INDEX 01 13:51:35
  TRACK 11 AUDIO
    TITLE "A11 Portugal"
    INDEX 01 15:14:32
  TRACK 12 AUDIO
    TITLE "A12 Algeria"
    INDEX 01 17:00:26
FILE "02. Мундиал '86 - Сторона В.flac" WAVE
  TRACK 13 AUDIO
    TITLE "B1 Italy"
    INDEX 01 00:00:00
  TRACK 14 AUDIO
    TITLE "B2 Argentina"
    INDEX 01 02:05:54
  TRACK 15 AUDIO
    TITLE "B3 USSR"
    INDEX 01 03:37:55
  TRACK 16 AUDIO
    TITLE "B4 Northern Ireland"
    INDEX 01 05:04:73
  TRACK 17 AUDIO
    TITLE "B5 Poland"
    INDEX 01 06:18:31
  TRACK 18 AUDIO
    TITLE "B6 Spain"
    INDEX 01 07:19:67
  TRACK 19 AUDIO
    TITLE "B7 Hungary"
    INDEX 01 08:46:24
  TRACK 20 AUDIO
    TITLE "B8 Iraq"
    INDEX 01 10:32:71
  TRACK 21 AUDIO
    TITLE "B9 Belgium"
    INDEX 01 12:17:44
  TRACK 22 AUDIO
    TITLE "B10 Uruguay"
    INDEX 01 13:50:51
  TRACK 23 AUDIO
    TITLE "B11 Morocco"
    INDEX 01 15:51:52
  TRACK 24 AUDIO
    TITLE "B12 FRG"
    INDEX 01 17:45:31
Не забывайте говорить Спасибо. Не уходите с раздачи!   
Торрент: Зарегистрирован [26 май 2016, 13:47]
Статус:
Проверен
 
.torrent скачан: 0 раз
Хэш: 769f7af05956f82c1f78b0f71b20d2b4a6d9bea5
Размер: 233.96 МБ (245 322 031 байт)
   Стать Автором раздачи
   
Цитата
  • Похожие торренты
    Ответы
    Просмотры
    Последнее сообщение

Вернуться в Фольклор, народная и этническая музыка (оцифровки)

Кто сейчас на конференции

Сейчас эту тему просматривают: нет зарегистрированных пользователей и гости: 1