(Folk, Traditional) [7"] [16/44,1] Ансамбль песни и пляски донских казаков - Песни донских казаков - 1968, FLAC (tracks)

 Статистика раздачи 
Размер: 28.08 МБ   |  Зарегистрирован: 20 авг 2016, 09:47   |   .torrent скачан: 0 раз
Сидеров: 0  [ 0 байт/сек ]     Личеров: 0  [ 0 байт/сек ]  
  
Аватара пользователя
Главный редактор
Главный редактор
Я на сайте
 
Раздал: 90.01 ТБ
Скачал: 3.78 ТБ
Ратио: 24.248
Сообщения: 274792
Стаж: 9 лет 1 месяц 19 дней
Откуда: Санкт-Петербург

Ансамбль Песни И Пляски Донских Казаков
Песни Донских Казаков
Жанр: Folk, Traditional
Носитель: 7"
Год выпуска: 1968
Лейбл: Мелодия (Д 00022359-60)
Страна-производитель: USSR
Аудио кодек: FLAC
Тип рипа: tracks
Тэги: прописаны
Формат записи: 16/44,1 (dual mono)
Формат раздачи: 16/44,1=#006699](mono)
Продолжительность: 00:08:32
Источник оцифровки: Antikata
Код класса состояния винила: VG
Устройство воспроизведения: Simens RW 300
Головка звукоснимателя: AT 71
Предварительный усилитель: Larsen
АЦП: Realteck
Программа-оцифровщик: Audacity
Обработка: реставрация (samopal records)
Треклист:
01. Песня донских казаков
02. Я качу, качу, качу, я горошек молочу
03. Из-за леса, леса копий и мечей
04. Девушка крапивушку жала

Код: Выделить всё
foobar2000 1.1.3 / Dynamic Range Meter 1.1.1
log date: 2016-08-20 15:40:04
--------------------------------------------------------------------------------
Analyzed: Государственный ансамбль песни и пляски донских казаков / Песня Донских Казаков
--------------------------------------------------------------------------------
DR         Peak         RMS     Duration Track
--------------------------------------------------------------------------------
DR10       0.00 dB   -13.30 dB      2:08 ?-Песня донских казаков
DR11       0.00 dB   -12.37 dB      2:27 ?-Я качу, качу, качу, я горошек молочу
DR11       0.00 dB   -11.91 dB      1:35 ?-Из-за леса, леса копий и мечей
DR11       0.00 dB   -15.07 dB      2:23 ?-Девушка крапивушку жала
--------------------------------------------------------------------------------
Number of tracks:  4
Official DR value: DR11
Samplerate:        44100 Hz
Channels:          1
Bits per sample:   16
Bitrate:           410 kbps
Codec:             FLAC
================================================================================
Не забывайте говорить Спасибо. Не уходите с раздачи!   
Торрент: Зарегистрирован [20 авг 2016, 09:47]
Статус:
Проверен
 
.torrent скачан: 0 раз
Хэш: 31e864b74ec2e3f54e1a0bd2aff353b211e8fe5b
Размер: 28.08 МБ (29 443 648 байт)
   Стать Автором раздачи
   
Цитата
  • Похожие торренты
    Ответы
    Просмотры
    Последнее сообщение

Вернуться в Фольклор, народная и этническая музыка (оцифровки)

Кто сейчас на конференции

Сейчас эту тему просматривают: нет зарегистрированных пользователей и гости: 1