(Folk, World & Country) [LP] [24/96] George Sandifer – Country Love Songs - 1989, FLAC (image+.cue)

 Статистика раздачи 
Размер: 822.5 МБ   |  Зарегистрирован: 29 окт 2015, 03:27   |   .torrent скачан: 0 раз
Сидеров: 0  [ 0 байт/сек ]     Личеров: 0  [ 0 байт/сек ]  
  
Аватара пользователя
Главный редактор
Главный редактор
 
Раздал: 90.01 ТБ
Скачал: 3.78 ТБ
Ратио: 24.248
Сообщения: 274856
Стаж: 9 лет 1 месяц 20 дней
Откуда: Санкт-Петербург

George Sandifer – Country Love Songs
Жанр: Folk, World & Country
Носитель: LP
Год выпуска: 1989
Лейбл: AMIGA – 8 56 443
Страна-производитель: German Democratic Republic
Аудио кодек: FLAC
Тип рипа: image+.cue
Формат записи: 24/192
Формат раздачи: 24/96
Продолжительность: 00:39:28
Тэги в .cue: прописаны
Источник оцифровки: автором раздачи
Код класса состояния винила: VG+
Устройство воспроизведения: Электроника ЭП 017С
Головка звукоснимателя: "AMX - 100 (LTO®)"
Предварительный усилитель: "AMX - 100 (LTO®)"
АЦП: Juli@
Программа-оцифровщик: Adobe Audition CS6 5.0.2.
Обработка: удаление щелчков только в паузах

01 The Loving Way
02 Lady Of My Eyes
03 Alberta Sunrise
04 Nothing Good About Goodbye
05 The Devils Alive And Well In GA.
06 Cheater Never Win
07 Searching For A Stranger
08 Everytime
09 When You Got Your Woman
10 The Same Mistake
11 Can We Talk
12 First Love
13 Benny And His Switchblade
14 Why Am I Afraid Of Loving You

Код: Выделить всё
REM GENRE Folk, World & Country
REM DATE 1989
REM COMENT Vinyl, LP, Album, Compilation, AMIGA – 8 56 443, GDR
TITLE Country Love Songs
PERFORMER George Sandifer
FILE "01. Country Love Songs - Side 1.flac" WAVE
  TRACK 01 AUDIO
    TITLE "01. The Loving Way"
    INDEX 01 00:00:00
  TRACK 02 AUDIO
    TITLE "02. Lady Of My Eyes"
    INDEX 01 02:30:15
  TRACK 03 AUDIO
    TITLE "03. Alberta Sunrise"
    INDEX 01 05:18:26
  TRACK 04 AUDIO
    TITLE "04. Nothing Good About Goodbye"
    INDEX 01 08:17:15
  TRACK 05 AUDIO
    TITLE "05. The Devils Alive And Well In GA."
    INDEX 01 10:49:09
  TRACK 06 AUDIO
    TITLE "06. Cheater Never Win"
    INDEX 01 14:37:49
  TRACK 07 AUDIO
    TITLE "07. Searching For A Stranger"
    INDEX 01 17:37:51
FILE "02. Country Love Songs - Side 2.flac" WAVE
  TRACK 08 AUDIO
    TITLE "08. Everytime"
    INDEX 01 00:00:00
  TRACK 09 AUDIO
    TITLE "09. When You Got Your Woman"
    INDEX 01 02:27:65
  TRACK 10 AUDIO
    TITLE "10. The Same Mistake"
    INDEX 01 04:42:65
  TRACK 11 AUDIO
    TITLE "11. Can We Talk"
    INDEX 01 07:38:65
  TRACK 12 AUDIO
    TITLE "12. First Love"
    INDEX 01 10:33:71
  TRACK 13 AUDIO
    TITLE "13 Benny And His Switchblade"
    INDEX 01 13:15:39
  TRACK 14 AUDIO
    TITLE "14 Why Am I Afraid Of Loving You"
    INDEX 01 16:12:59
Не забывайте говорить Спасибо. Не уходите с раздачи!   
Торрент: Зарегистрирован [29 окт 2015, 03:27]
Статус:
Проверен
 
.torrent скачан: 0 раз
Хэш: a158292c374fd2122edf472ed8bda26297918c37
Размер: 822.5 МБ (862 450 716 байт)
   Стать Автором раздачи
   
Цитата
  • Похожие торренты
    Ответы
    Просмотры
    Последнее сообщение

Вернуться в Фольклор, народная и этническая музыка (оцифровки)

Кто сейчас на конференции

Сейчас эту тему просматривают: нет зарегистрированных пользователей и гости: 1