(Folk, World & Country) [MC] [24/48] Veli-Matti Jarvenpaa - Sarkijarven Bolero/Veli-Matti Järvenpää - Särkijärven Bolero - 1992, FLAC (image+.cue)

 Статистика раздачи 
Размер: 512.26 МБ   |  Зарегистрирован: 24 дек 2018, 05:24   |   .torrent скачан: 0 раз
Сидеров: 0  [ 0 байт/сек ]     Личеров: 0  [ 0 байт/сек ]  
  
Аватара пользователя
Главный редактор
Главный редактор
 
Раздал: 90.01 ТБ
Скачал: 3.78 ТБ
Ратио: 24.248
Сообщения: 274106
Стаж: 9 лет 1 месяц 17 дней
Откуда: Санкт-Петербург

Veli-Matti Järvenpää - Särkijärven Bolero (1992)

Жанр: Folk, World & Country
Носитель: MC
Год выпуска: 1992
Лейбл: Amigo - AMFK 2003-4
Страна-производитель: Finland
Аудио кодек: FLAC
Тип рипа: image+.cue
Формат записи: 24/96
Формат раздачи: 24/48
Продолжительность: 00:40:41
Тэги в .cue: прописаны
Источник оцифровки: автором раздачи
Код класса состояния магнитной ленты: Ex
Устройство воспроизведения: AKAI GX 95MK2
Магнитная головка: LC-OFC SGX (x2)
Предварительный усилитель: встроенный
АЦП: Juli@
Программа-оцифровщик: Adobe Audition CS6 5.0.2.
Обработка: удаление артефактов

A1 Heittopussi
Vocals – Eero Raittinen

A2 Sarkijarven Bolero
A3 Vauhdin Maailma
Vocals – Timo Vakkilainen
A4 Neidot Herkat Hennot
Vocals – Eero Raittinen
A5 Sua Muistin Jääkukkasin
Vocals – J. Karjalainen
A6 Vingelska
A7 Cajunvalssi
B1 Suuret Tunteet
Vocals – Timo Kiiskinen
B2 Hullu Helena
Vocals – Timo Kiiskinen
B3 Sally Ann (Senecan Square Dance)
B4 Houtskarin Polkka
B5 Klassista Ja Jatsii
Vocals – Timo Vakkilainen
B6 Unelmavalssi

Код: Выделить всё
foobar2000 1.1.3 / Dynamic Range Meter 1.1.1
log date: 2018-12-24 11:02:58
--------------------------------------------------------------------------------
Analyzed: Veli-Matti Jarvenpaa / Sarkijarven Bolero
--------------------------------------------------------------------------------
DR         Peak         RMS     Duration Track
--------------------------------------------------------------------------------
DR11      -0.54 dB   -13.53 dB      3:04 ?-A1 Heittopussi
DR12      -0.10 dB   -14.17 dB      3:06 ?-A2 Sarkijarven Bolero
DR11      -0.14 dB   -12.59 dB      2:59 ?-A3 Vauhdin Maailma
DR11      -1.64 dB   -14.18 dB      4:56 ?-A4 Neidot Herkat Hennot
DR12      -0.10 dB   -13.29 dB      2:48 ?-A5 Sua Muistin Jaakukkasin
DR12      -2.50 dB   -16.01 dB      2:14 ?-A6 Vingelska
DR10      -1.76 dB   -13.58 dB      2:29 ?-A7 Cajunvalssi
DR12      -0.94 dB   -15.16 dB      3:50 ?-B1 Suuret Tunteet
DR12      -1.73 dB   -15.73 dB      4:54 ?-B2 Hullu Helena
DR13      -2.06 dB   -18.61 dB      2:52 ?-B3 Sally Ann (Senecan Square Dance)
DR14      -0.04 dB   -15.92 dB      2:07 ?-B4 Houtskarin Polkka
DR13      -1.87 dB   -16.17 dB      2:51 ?-B5 Klassista Ja Jatsii
DR12      -1.31 dB   -15.50 dB      2:30 ?-B6 Unelmavalssi
--------------------------------------------------------------------------------
Number of tracks:  13
Official DR value: DR12
Samplerate:        48000 Hz
Channels:          2
Bits per sample:   24
Bitrate:           1725 kbps
Codec:             FLAC
================================================================================
Код: Выделить всё
REM GENRE "Rock, Folk, World & Country"
REM DATE "1992"
REM COMMENT "Cassette, Album, Amigo - AMFK 2003-4, Finland"
PERFORMER "Veli-Matti Jarvenpaa"
TITLE "Sarkijarven Bolero"
FILE "01. Side A.flac" WAVE
  TRACK 01 AUDIO
    TITLE "A1 Heittopussi"
    INDEX 01 00:00:00
  TRACK 02 AUDIO
    TITLE "A2 Sarkijarven Bolero"
    INDEX 01 03:04:13
  TRACK 03 AUDIO
    TITLE "A3 Vauhdin Maailma"
    INDEX 01 06:10:28
  TRACK 04 AUDIO
    TITLE "A4 Neidot Herkat Hennot"
    INDEX 01 09:09:33
  TRACK 05 AUDIO
    TITLE "A5 Sua Muistin Jaakukkasin"
    INDEX 01 14:05:27
  TRACK 06 AUDIO
    TITLE "A6 Vingelska"
    INDEX 01 16:53:55
  TRACK 07 AUDIO
    TITLE "A7 Cajunvalssi"
    INDEX 01 19:07:19
FILE "02. Side B.flac" WAVE
  TRACK 08 AUDIO
    TITLE "B1 Suuret Tunteet"
    INDEX 01 00:00:00
  TRACK 09 AUDIO
    TITLE "B2 Hullu Helena"
    INDEX 01 03:49:44
  TRACK 10 AUDIO
    TITLE "B3 Sally Ann (Senecan Square Dance)"
    INDEX 01 08:43:32
  TRACK 11 AUDIO
    TITLE "B4 Houtskarin Polkka"
    INDEX 01 11:35:14
  TRACK 12 AUDIO
    TITLE "B5 Klassista Ja Jatsii"
    INDEX 01 13:42:42
  TRACK 13 AUDIO
    TITLE "B6 Unelmavalssi"
    INDEX 01 16:33:56


Не забывайте говорить Спасибо. Не уходите с раздачи!   
Торрент: Зарегистрирован [24 дек 2018, 05:24]
Статус:
Проверен
 
.torrent скачан: 0 раз
Хэш: acc19112b8721262727d5b98b85407a111e7218a
Размер: 512.26 МБ (537 147 102 байт)
   Стать Автором раздачи
   
Цитата
  • Похожие торренты
    Ответы
    Просмотры
    Последнее сообщение

Вернуться в Фольклор, народная и этническая музыка (оцифровки)

Кто сейчас на конференции

Сейчас эту тему просматривают: нет зарегистрированных пользователей и гости: 1