(folk) Inti Illimani - Flight of the Condor - 1982, [LP] [16/44] FLAC (image+.cue), lossless

 Статистика раздачи 
Размер: 244.22 МБ   |  Зарегистрирован: 19 дек 2011, 15:24   |   .torrent скачан: 0 раз
Сидеров: 0  [ 0 байт/сек ]     Личеров: 0  [ 0 байт/сек ]  
  
Аватара пользователя
Главный редактор
Главный редактор
 
Раздал: 90.01 ТБ
Скачал: 3.78 ТБ
Ратио: 24.248
Сообщения: 273876
Стаж: 9 лет 1 месяц 14 дней
Откуда: Санкт-Петербург

Inti Illimani
Flight of the Condor

Жанр: folk
Страна-производитель диска: England
Год издания диска: 1982
Издатель (лейбл): BBC Records
Номер по каталогу: REB 440
Страна: Chili
Аудиокодек: FLAC (*.flac)
Тип рипа: image+.cue
Битрейт аудио: lossless
Продолжительность: 47:24
Источник (релизер): Fran Solo
Наличие сканов в содержимом раздачи: да
Vinyl rip: Enrico
Turntable: JVC - JL A40
Cartridge: GOLDRING
1st. edition software: SONY SOUNDFORGE 9.0, WAVELAB 6.0
2nd. mastered and audio correction: Fran Solo
Software: Macromedia SoundEdit, XLD Lossless.
Scan LP cover (1:1): Enrico

01. LADO 1: Floreo De Llamas (Dance Of The Flames) (4:19)
02. Alturas (The Heights) (3:01)
03. De Terciopelo Negro (Of Black Velvet) (1:35)
04. Dolencias (My Sorrows) (3:13)
05. A Vos Te H'ai Pesar (You'll Be Upset) (2:03)
06. Sicuriadas (Playing Sicus Together) (3:16)
07. Danza De Los Quechuas (Dance of The Quechuas) (1:59)
08. Papel De Plata (Silver Paper) (2:49)
09. Volando (Flying) (1:02)
10. LADO 2: A Vos Te H'ai Pesar (You'll Be Upset) (2:00)
11. La Mariposa (The Butterfly) (2:15)
12. Mi Raza (My Race) (2:52)
13. Tema De La Quebrada De Humahuaca (Theme Of The Humahuaca Gorge) (2:58)
14. Vasija De Barro (Earthenware Jar) (2:14)
15. Huajra (Horn) (3:52)
16. Longuita (2:03)
17. Llanto De Mi Madre (My Mother's Tears) (2:39)
18. Calambito Temucano (3:13)
Код: Выделить всё
TITLE "Flight of the Condor (LP)"
PERFORMER "Inti-Illimani"
REM GENRE "Andina"
REM DATE "1982"
REM COMMENT "Enrico-Fran Solo"
REM DISCID FA0B2912
FILE "Flight of the Condor-LP.flac" WAVE
  TRACK 01 AUDIO
    TITLE "LADO 1: Floreo De Llamas (Dance Of The Flames)"
    INDEX 01 00:00:00
  TRACK 02 AUDIO
    TITLE "Alturas (The Heights)"
    INDEX 01 04:18:40
  TRACK 03 AUDIO
    TITLE "De Terciopelo Negro (Of Black Velvet)"
    INDEX 01 07:19:40
  TRACK 04 AUDIO
    TITLE "Dolencias (My Sorrows)"
    INDEX 01 08:54:20
  TRACK 05 AUDIO
    TITLE "A Vos Te H'ai Pesar (You'll Be Upset)"
    INDEX 01 12:07:40
  TRACK 06 AUDIO
    TITLE "Sicuriadas (Playing Sicus Together)"
    INDEX 01 14:10:20
  TRACK 07 AUDIO
    TITLE "Danza De Los Quechuas (Dance of The Quechuas)"
    INDEX 01 17:26:40
  TRACK 08 AUDIO
    TITLE "Papel De Plata (Silver Paper)"
    INDEX 01 19:25:50
  TRACK 09 AUDIO
    TITLE "Volando (Flying)"
    INDEX 01 22:14:40
  TRACK 10 AUDIO
    TITLE "LADO 2: A Vos Te H'ai Pesar (You'll Be Upset)"
    INDEX 01 23:17:00
  TRACK 11 AUDIO
    TITLE "La Mariposa (The Butterfly)"
    INDEX 01 25:16:40
  TRACK 12 AUDIO
    TITLE "Mi Raza (My Race)"
    INDEX 01 27:31:20
  TRACK 13 AUDIO
    TITLE "Tema De La Quebrada De Humahuaca (Theme Of The Humahuaca Gorge)"
    INDEX 01 30:23:40
  TRACK 14 AUDIO
    TITLE "Vasija De Barro (Earthenware Jar)"
    INDEX 01 33:21:48
  TRACK 15 AUDIO
    TITLE "Huajra (Horn)"
    INDEX 01 35:36:10
  TRACK 16 AUDIO
    TITLE "Longuita"
    INDEX 01 39:28:40
  TRACK 17 AUDIO
    TITLE "Llanto De Mi Madre (My Mother's Tears)"
    INDEX 01 41:31:48
  TRACK 18 AUDIO
    TITLE "Calambito Temucano"
    INDEX 01 44:10:40
Код: Выделить всё
-----------------------
DON'T MODIFY THIS FILE
-----------------------
PERFORMER: auCDtect Task Manager, ver. 1.5.1RC4 build 1.5.1.5
Copyright (c) 2008-2010 y-soft. All rights reserved
[url=http://y-soft.org]http://y-soft.org[/url]
ANALYZER: auCDtect: CD records authenticity detector, version 0.8.2
Copyright (c) 2004 Oleg Berngardt. All rights reserved.
Copyright (c) 2004 Alexander Djourik. All rights reserved.
FILE: Flight of the Condor-LP.flac
  Size: 235599489 Hash: 625B6EB2E680C18AF058E3BD0F33E165 Accuracy: -m0
  Conclusion: CDDA 100%
  Signature: 97C9C41265E264F3B889CA722F706F2B22473A65
During the 80's, it was announced with fanfare "a series by the BBC, titled "The Flight of the Condor". Basic idea was to show the fauna of South America being the protagonist, the Andean condor. As I'm a fan of good documentaries, I didn't want to miss, as well, the soundtrack was performed by Inti-Illimani, one of my favorite groups of Andean music. The album I'm presenting today, is just the product of the TV series.
It's an honor for me to share this wonder, then, despite a compilation, I believe that is dazzling, almost all instrumental. He who doesn't know "Inti-Illimani" can delve into his music through this album (100% recommended). The credits are shared by other Chilean group "Guamary" short-lived, when his song "Flame of flames" is the property of the entire series.
What would we do without music? I wonder.
Fran Solo
Spanish.
Durante la década de los 80s, se anunció con "bombos y platillos" una serie hecha por la BBC, titulada "El vuelo del cóndor". La idea era mostrar la fauna de toda Sudamérica siendo el protagonista el cóndor andino. Como soy un fan de los buenos documentales, no quería perdérmelo, pues además, la banda de sonido era interpretada por "Inti-Illimani", uno de mis grupos de música andina favorito. El álbum que hoy presento es justamente el producto de esa serie televisiva.
Es un orgullo para mí compartir esta maravilla, pues, a pesar de que es una recopilación, creo que es deslumbrante; casi toda instrumental. El que no conoce "Inti-Illimani" se puede adentrar en su música gracias a este álbum (100% recomendable). Los créditos son compartidos por otro conjunto chileno "Guamary", de corta existencia, en que su canción "Floreo de llamas" es la característica de toda la serie.
¿Qué haríamos sin la música? Me pregunto.
Fran Solo
Не забывайте говорить Спасибо. Не уходите с раздачи!   
Торрент: Зарегистрирован [19 дек 2011, 15:24]
Статус:
Проверен
 
.torrent скачан: 0 раз
Хэш: ddb0ac5e92812fea0aec91ca2d397e256c519fa3
Размер: 244.22 МБ (256 081 508 байт)
   Стать Автором раздачи
   
Цитата

Вернуться в Фольклор, народная и этническая музыка (оцифровки)

Кто сейчас на конференции

Сейчас эту тему просматривают: нет зарегистрированных пользователей и гости: 1