[TR24][OF][FM] Джуди / Judy - Renee Zellweger - 2019 (Soundtrack, Score, Vocal Jazz)

 Статистика раздачи 
Размер: 488.61 МБ   |  Зарегистрирован: 27 сен 2019, 17:58   |   .torrent скачан: 0 раз
Сидеров: 13  [ 0 байт/сек ]     Личеров: 3  [ 0 байт/сек ]  
  
Аватара пользователя
Главный редактор
Главный редактор
 
Раздал: 90.01 ТБ
Скачал: 3.78 ТБ
Ратио: 24.248
Сообщения: 291037
Стаж: 9 лет 7 месяцев 11 дней
Откуда: Санкт-Петербург

Renée Zellweger - Judy


Формат записи/Источник записи: [TR24][OF][FM]
Наличие водяных знаков: Нет
Год издания: 2019
Жанр: Soundtrack, Score, Vocal Jazz
Издатель (лейбл): Decca
Продолжительность: 00:39:36
Наличие сканов в содержимом раздачи: Только обложка альбома
Контейнер: FLAC (*.flac)
Тип рипа: tracks
Разрядность: 24/44.1
Формат: PCM
Количество каналов: 2.0
Источник (релизер): prestomusic.com
Треклист
01. By Myself (4:15)
02. Get Happy (with Sam Smith) (2:52)
03. For Once In My Life (3:00)
04. Zing Went The Strings (3:22)
05. You Made Me Love You (2:30)
06. Talk Of The Town (3:42)
07. Come Rain Or Come Shine (3:45)
08. Have Yourself A Merry Little Christmas (with Rufus Wainwright) (2:58)
09. The Trolley Song (2:30)
10. The Man That Got Away (4:21)
11. San Francisco (2:45)
12. Over The Rainbow (3:35)
Код: Выделить всё
foobar2000 1.4 / Dynamic Range Meter 1.1.1
log date: 2019-09-27 21:47:33
--------------------------------------------------------------------------------
Analyzed: Renée Zellweger / Judy (Original Motion Picture Soundtrack)
--------------------------------------------------------------------------------
DR         Peak         RMS     Duration Track
--------------------------------------------------------------------------------
DR9        0.00 dB   -11.96 dB      4:15 01-By Myself (From 'Judy' Soundtrack)
DR9        0.00 dB   -10.13 dB      2:52 02-Get Happy
DR10       0.00 dB   -11.50 dB      3:00 03-For Once In My Life (From 'Judy' Soundtrack)
DR9        0.00 dB   -10.34 dB      3:22 04-Zing Went The Strings (From 'Judy' Soundtrack)
DR8        0.00 dB   -10.11 dB      2:30 05-You Made Me Love You (From 'Judy' Soundtrack)
DR9        0.00 dB   -10.61 dB      3:42 06-Talk Of The Town (From 'Judy' Soundtrack)
DR8        0.00 dB    -9.30 dB      3:45 07-Come Rain Or Come Shine (From 'Judy' Soundtrack)
DR8        0.00 dB   -11.15 dB      2:58 08-Have Yourself A Merry Little Christmas
DR9        0.00 dB   -10.46 dB      2:30 09-The Trolley Song (From 'Judy' Soundtrack)
DR9        0.00 dB   -13.28 dB      4:21 10-The Man That Got Away (From 'Judy' Soundtrack)
DR9        0.00 dB   -10.47 dB      2:45 11-San Francisco (From 'Judy' Soundtrack)
DR11      -0.07 dB   -13.54 dB      3:35 12-Over The Rainbow (From 'Judy' Soundtrack)
--------------------------------------------------------------------------------
Number of tracks:  12
Official DR value: DR9
Samplerate:        44100 Hz
Channels:          2
Bits per sample:   24
Bitrate:           1515 kbps
Codec:             FLAC
================================================================================
If Renée Zellweger had any apprehension about stepping into Judy Garland’s slippers for the biopic Judy, it’s hard to tell by listening to her performance on the film’s soundtrack. Zellweger channels the smoky, quavering vocals of late-period Judy—years after the MGM musicals, amid the ups and downs of multiple marriages, hospital visits, financial ruin, and the prescription drug abuse that would be her undoing. Garland may not have been in top form for one of her final engagements, at London’s Talk of the Town nightclub, but Zellweger is at her strongest here inhabiting the diva and taking on her best-known numbers: “Over the Rainbow,” “The Trolley Song,” and “Zing Went the Strings.” Featuring guest appearances from Sam Smith and Rufus Wainwright (the latter of whom is a lifelong Judy devotee and recorded a full-album tribute to her 1961 Carnegie Hall comeback), this bittersweet recording illuminates some of the brightest spots of Garland’s career, viewed through the lens of one of her darkest moments.
Не забывайте говорить Спасибо. Не уходите с раздачи!   
Торрент: Зарегистрирован [27 сен 2019, 17:58]
Статус:
Проверен
 
.torrent скачан: 0 раз
Хэш: fcb739279ff73aef4db28d813bcb7563a300705a
Размер: 488.61 МБ (512 344 380 байт)
   Стать Автором раздачи
   
Цитата
  • Похожие торренты
    Ответы
    Просмотры
    Последнее сообщение

Вернуться в Саундтреки (Hi-Res stereo и многоканальная музыка)

Кто сейчас на конференции

Сейчас эту тему просматривают: нет зарегистрированных пользователей и гости: 1